Dire Straits – Brothers In Arms (Japanese Edition)




Artist: Dire Straits
Year: 1985/1991
Genre: Rock
Notes: Discogs
Add. Notes: Japanese Edition
Cover incl.: Yes
Encoder: FLAC
Bitrate: ~700 kBit/s (44.1 kHz/16 Bit/s)
Log & Cue incl.: Yes
Size: 421 MB
Password: “slam” (without ” “)


All Downloads/Hosters are compatible

Download 1
KatFile.com
Turbobit.net
FileFactory.com
Rapidgator.net
Download 2
KatFile.com
Turbobit.net
FileFactory.com
Rapidgator.net

Tracklist:

1 - So Far Away - 5:12
2 - Money For Nothing - 8:27
3 - Walk Of Life - 4:12
4 - Your Latest Trick - 6:34
5 - Why Worry - 8:31
6 - Ride Across The River - 6:58
7 - The Man's Too Strong - 4:40
8 - One World - 3:41
9 - Brothers In Arms - 6:59

EAC-Log, CUE-Sheed & NFO:

Click to open spoiler
Exact Audio Copy V1.0 beta 3 from 29. August 2011

EAC extraction logfile from 5. May 2013, 23:21

Dire Straits / Brothers In Arms

Used drive : PLEXTOR DVDR PX-716A Adapter: 0 ID: 0

Read mode : Secure
Utilize accurate stream : Yes
Defeat audio cache : Yes
Make use of C2 pointers : No

Read offset correction : 30
Overread into Lead-In and Lead-Out : Yes
Fill up missing offset samples with silence : Yes
Delete leading and trailing silent blocks : No
Null samples used in CRC calculations : Yes
Used interface : Native Win32 interface for Win NT & 2000

Used output format : User Defined Encoder
Selected bitrate : 896 kBit/s
Quality : High
Add ID3 tag : No
Command line compressor : C:\Program Files (x86)\FLAC\flac.exe
Additional command line options : -V -8 -T “Date=%year%” -T “Genre=%genre%” %source%

TOC of the extracted CD

Track | Start | Length | Start sector | End sector
———————————————————
1 | 0:00.37 | 5:12.33 | 37 | 23469
2 | 5:12.70 | 8:26.45 | 23470 | 61464
3 | 13:39.40 | 4:12.22 | 61465 | 80386
4 | 17:51.62 | 6:33.65 | 80387 | 109926
5 | 24:25.52 | 8:31.30 | 109927 | 148281
6 | 32:57.07 | 6:58.00 | 148282 | 179631
7 | 39:55.07 | 4:40.20 | 179632 | 200651
8 | 44:35.27 | 3:40.58 | 200652 | 217209
9 | 48:16.10 | 6:59.12 | 217210 | 248646

Range status and errors

Selected range

Filename E:\Youtracker\Dire Straits – Collection\6 Studio Albums\1985 Dire Straits – Brothers In Arms (Nippon PHCR-1122 japan)\Dire Straits – Brothers In Arms.wav

Peak level 79.4 %
Extraction speed 1.7 X
Range quality 100.0 %
Test CRC 116C7DFC
Copy CRC 116C7DFC
Copy OK

No errors occurred

AccurateRip summary

Track 1 accurately ripped (confidence 5) [9F1D6D16] (AR v1)
Track 2 accurately ripped (confidence 5) [D451C939] (AR v1)
Track 3 accurately ripped (confidence 5) [C22D0FB0] (AR v1)
Track 4 accurately ripped (confidence 5) [DCC054E9] (AR v1)
Track 5 accurately ripped (confidence 5) [33726D7E] (AR v1)
Track 6 accurately ripped (confidence 5) [7F10097B] (AR v1)
Track 7 accurately ripped (confidence 5) [79068AC6] (AR v1)
Track 8 accurately ripped (confidence 5) [0EC0A682] (AR v1)
Track 9 accurately ripped (confidence 5) [12626CBB] (AR v1)

All tracks accurately ripped

End of status report

—- CUETools DB Plugin V2.1.3

[CTDB TOCID: ruqlHmuQlcfkPWYJr.OulBDN0_Q-] found, Submit result: discs with pregaps not supported in this protocol version
[36b5dd1e] (5/5) Differs in 0 samples @
You can use CUETools to repair this rip.

==== Log checksum 5FA523BF6CABE1ADF03C0AD6BA60D08B622830BE7FF1F2F68330A7CE1F49B496 ====

REM GENRE Rock
REM DATE 1985
REM DISCID 920CF309
REM COMMENT “ExactAudioCopy v1.0b3”
PERFORMER “Dire Straits”
TITLE “Brothers In Arms”
FILE “Dire Straits – Brothers In Arms.flac” WAVE
TRACK 01 AUDIO
TITLE “So Far Away”
PERFORMER “Dire Straits”
INDEX 00 00:00:00
INDEX 01 00:00:37
TRACK 02 AUDIO
TITLE “Money For Nothing”
PERFORMER “Dire Straits”
INDEX 00 05:08:73
INDEX 01 05:12:70
TRACK 03 AUDIO
TITLE “Walk Of Life”
PERFORMER “Dire Straits”
INDEX 00 13:39:38
INDEX 01 13:39:40
TRACK 04 AUDIO
TITLE “Your Latest Trick”
PERFORMER “Dire Straits”
INDEX 00 17:49:51
INDEX 01 17:51:62
TRACK 05 AUDIO
TITLE “Why Worry”
PERFORMER “Dire Straits”
INDEX 00 24:23:13
INDEX 01 24:25:52
TRACK 06 AUDIO
TITLE “Ride Across The River”
PERFORMER “Dire Straits”
INDEX 00 32:51:16
INDEX 01 32:57:07
TRACK 07 AUDIO
TITLE “The Man’s Too Strong”
PERFORMER “Dire Straits”
INDEX 00 39:54:16
INDEX 01 39:55:07
TRACK 08 AUDIO
TITLE “One World”
PERFORMER “Dire Straits”
INDEX 00 44:33:51
INDEX 01 44:35:27
TRACK 09 AUDIO
TITLE “Brothers In Arms”
PERFORMER “Dire Straits”
INDEX 00 48:12:41
INDEX 01 48:16:10


Leave a Reply

Your email address will not be published. Required fields are marked *

Enter the text from the image below
 

This site uses Akismet to reduce spam. Learn how your comment data is processed.