Dire Straits – Brothers In Arms (Club Edition)




No Cover available

Artist: Dire Straits
Year: 1985
Genre: Rock
Notes: Discogs
Add. Notes: Club Edition
Watch Songs on: YouTube
Cover incl.: Yes
Encoder: FLAC
Bitrate: ~700 kBit/s (44.1 kHz/16 Bit/s)
Log & Cue incl.: Yes/Yes
Size: 329,3 MB
Password: “slam” (without ” “)


All Downloads/Hosters are compatible

Download 1
KatFile.com
Turbobit.net
Rapidgator.net
FileFactory.com
Download 2
KatFile.com
Turbobit.net
Rapidgator.net
FileFactory.com

Tracklist:

1 So Far Away 5:11
2 Money For Nothing 8:26
3 Walk Of Life 4:12
4 Your Latest Trick 6:33
5 Why Worry 8:31
6 Ride Across The River 6:58
7 The Man's Too Strong 4:40
8 One World 3:40
9 Brothers In Arms 7:00

EAC-Log, CUE-Sheed & NFO:

Click to open spoiler
Exact Audio Copy V1.3 from 2. September 2016

EAC extraction logfile from 28. April 2018, 22:05

Dire Straits / Brothers In Arms (W2-25264)

Used drive : PLEXTOR DVDR PX-891SA Adapter: 1 ID: 0

Read mode : Secure
Utilize accurate stream : Yes
Defeat audio cache : Yes
Make use of C2 pointers : No

Read offset correction : 6
Overread into Lead-In and Lead-Out : No
Fill up missing offset samples with silence : Yes
Delete leading and trailing silent blocks : No
Null samples used in CRC calculations : Yes
Used interface : Native Win32 interface for Win NT & 2000

Used output format : User Defined Encoder
Selected bitrate : 768 kBit/s
Quality : High
Add ID3 tag : No
Command line compressor : C:\Program Files (x86)\Exact Audio Copy\Flac\flac.exe
Additional command line options : -V -8 -T “Genre=%genre%” -T “Artist=%artist%” -T “Title=%title%” -T “Album=%albumtitle%” -T “Date=%year%” -T “Tracknumber=%tracknr%” -T “Comment=%comment%” %source%

TOC of the extracted CD

Track | Start | Length | Start sector | End sector
———————————————————
1 | 0:00.00 | 5:12.15 | 0 | 23414
2 | 5:12.15 | 8:26.02 | 23415 | 61366
3 | 13:38.17 | 4:12.38 | 61367 | 80304
4 | 17:50.55 | 6:33.60 | 80305 | 109839
5 | 24:24.40 | 8:31.27 | 109840 | 148191
6 | 32:55.67 | 6:58.03 | 148192 | 179544
7 | 39:53.70 | 4:40.17 | 179545 | 200561
8 | 44:34.12 | 3:40.68 | 200562 | 217129
9 | 48:15.05 | 6:55.57 | 217130 | 248311

Range status and errors

Selected range

Filename H:\dafnaplus\Dire Straits – Brothers In Arms\Dire Straits – Brothers In Arms (W2-25264).wav

Peak level 100.0 %
Extraction speed 7.9 X
Range quality 99.9 %
Test CRC 11248D33
Copy CRC 11248D33
Copy OK

No errors occurred

AccurateRip summary

Track 1 accurately ripped (confidence 3) [BF92944E] (AR v2)
Track 2 accurately ripped (confidence 3) [9550359A] (AR v2)
Track 3 accurately ripped (confidence 3) [9DBF59B4] (AR v2)
Track 4 accurately ripped (confidence 3) [54E6A59C] (AR v2)
Track 5 accurately ripped (confidence 3) [2F22BB91] (AR v2)
Track 6 accurately ripped (confidence 3) [CD0ED19C] (AR v2)
Track 7 accurately ripped (confidence 3) [A509FF53] (AR v2)
Track 8 accurately ripped (confidence 3) [E189CED5] (AR v2)
Track 9 accurately ripped (confidence 3) [62632D35] (AR v2)

All tracks accurately ripped

End of status report

—- CUETools DB Plugin V2.1.6

[CTDB TOCID: ChiqN.eykDnI_OtghLq.5AE9DDA-] found
Submit result: already submitted
Track | CTDB Status
1 | ( 47/505) Accurately ripped
2 | ( 45/505) Accurately ripped
3 | ( 47/505) Accurately ripped
4 | ( 47/505) Accurately ripped
5 | ( 47/505) Accurately ripped
6 | ( 46/505) Accurately ripped
7 | ( 46/505) Accurately ripped
8 | ( 46/505) Accurately ripped
9 | ( 46/505) Accurately ripped

==== Log checksum 4DA4403D674CB0DF224F217DC2D40C3656A018779F375502ABF1EE7D7D92AE7D ====

REM GENRE Rock
REM DATE 1985
REM DISCID 890CEE09
REM COMMENT “ExactAudioCopy v1.3”
PERFORMER “Dire Straits”
TITLE “Brothers In Arms”
FILE “Dire Straits – Brothers In Arms.flac” WAVE
TRACK 01 AUDIO
TITLE “So Far Away”
PERFORMER “Dire Straits”
INDEX 01 00:00:00
TRACK 02 AUDIO
TITLE “Money For Nothing”
PERFORMER “Dire Straits”
INDEX 00 05:05:40
INDEX 01 05:12:15
TRACK 03 AUDIO
TITLE “Walk Of Life”
PERFORMER “Dire Straits”
INDEX 00 13:36:32
INDEX 01 13:38:17
TRACK 04 AUDIO
TITLE “Your Latest Trick”
PERFORMER “Dire Straits”
INDEX 00 17:45:55
INDEX 01 17:50:55
TRACK 05 AUDIO
TITLE “Why Worry”
PERFORMER “Dire Straits”
INDEX 00 24:20:07
INDEX 01 24:24:40
TRACK 06 AUDIO
TITLE “Ride Across The River”
PERFORMER “Dire Straits”
INDEX 00 32:48:00
INDEX 01 32:55:67
TRACK 07 AUDIO
TITLE “The Man’s Too Strong”
PERFORMER “Dire Straits”
INDEX 00 39:52:22
INDEX 01 39:53:70
TRACK 08 AUDIO
TITLE “One World”
PERFORMER “Dire Straits”
INDEX 00 44:32:05
INDEX 01 44:34:12
TRACK 09 AUDIO
TITLE “Brothers In Arms”
PERFORMER “Dire Straits”
INDEX 00 48:08:37
INDEX 01 48:15:05


0

Publication author

offline 7 hours

Chaos

3
Comments: 4Publics: 3424Registration: 02-02-2019
Spread the Download

Leave a Reply

Your email address will not be published. Required fields are marked *

Enter the text from the image below
 

This site uses Akismet to reduce spam. Learn how your comment data is processed.