Dire Straits – Brothers In Arms




No Cover available

Artist: Dire Straits
Year: 1985
Genre: Rock
Notes: Discogs
Add. Notes:
Watch Songs on: YouTube
Cover incl.: Yes
Encoder: FLAC
Bitrate: ~700 kBit/s (44.1 kHz/16 Bit/s)
Log & Cue incl.: Yes/Yes
Size: 375,3 MB
Password: “slam” (without ” “)


All Downloads/Hosters are compatible

Download 1
KatFile.com
Turbobit.net
Rapidgator.net
FileFactory.com
Download 2
KatFile.com
Turbobit.net
Rapidgator.net
FileFactory.com

Tracklist:

1  So Far Away  5:12
2  Money For Nothing  8:26
3  Walk Of Life  4:12
4  Your Latest Trick  6:34
5  Why Worry  8:31
6  Ride Across The River  6:58
7  The Man's Too Strong  4:40
8  One World  3:41
9  Brothers In Arms  6:56

EAC-Log, CUE-Sheed & NFO:

Click to open spoiler
Exact Audio Copy V1.3 from 2. September 2016

EAC extraction logfile from 16. April 2017, 16:52

Dire Straits / Brothers In Arms

Used drive : PLEXTOR DVDR PX-810SA Adapter: 1 ID: 0

Read mode : Secure
Utilize accurate stream : Yes
Defeat audio cache : Yes
Make use of C2 pointers : No

Read offset correction : 48
Overread into Lead-In and Lead-Out : No
Fill up missing offset samples with silence : Yes
Delete leading and trailing silent blocks : No
Null samples used in CRC calculations : Yes
Used interface : Native Win32 interface for Win NT & 2000

Used output format : User Defined Encoder
Selected bitrate : 1024 kBit/s
Quality : High
Add ID3 tag : No
Command line compressor : C:\Program Files (x86)\Exact Audio Copy\FLAC\FLAC.EXE
Additional command line options : -V -8 %source%

TOC of the extracted CD

Track | Start | Length | Start sector | End sector
———————————————————
1 | 0:00.32 | 5:12.15 | 32 | 23446
2 | 5:12.47 | 8:26.03 | 23447 | 61399
3 | 13:38.50 | 4:12.37 | 61400 | 80336
4 | 17:51.12 | 6:33.60 | 80337 | 109871
5 | 24:24.72 | 8:31.28 | 109872 | 148224
6 | 32:56.25 | 6:58.02 | 148225 | 179576
7 | 39:54.27 | 4:40.18 | 179577 | 200594
8 | 44:34.45 | 3:40.67 | 200595 | 217161
9 | 48:15.37 | 6:55.58 | 217162 | 248344

Range status and errors

Selected range

Filename D:\SSDdata\Music\1985 – Brothers In Arms (Warner Bros.-WEA 9 25264-2 US, matrix 1 25264-2 OLY@@12, Flac)\Dire Straits – Brothers In Arms.wav

Peak level 100.0 %
Extraction speed 7.3 X
Range quality 100.0 %
Test CRC 0596DF89
Copy CRC 0596DF89
Copy OK

No errors occurred

AccurateRip summary

Track 1 accurately ripped (confidence 47) [8B45567F] (AR v2)
Track 2 accurately ripped (confidence 47) [FB076427] (AR v2)
Track 3 accurately ripped (confidence 48) [D7680C67] (AR v2)
Track 4 accurately ripped (confidence 48) [FD5F3DE6] (AR v2)
Track 5 accurately ripped (confidence 46) [1B132677] (AR v2)
Track 6 accurately ripped (confidence 46) [A96DBB51] (AR v2)
Track 7 accurately ripped (confidence 48) [C2DDDB80] (AR v2)
Track 8 accurately ripped (confidence 48) [7363E875] (AR v2)
Track 9 accurately ripped (confidence 47) [7FF56E81] (AR v2)

All tracks accurately ripped

End of status report

—- CUETools DB Plugin V2.1.6

[CTDB TOCID: 31q894hUlBo1rgfcs9UJqpdCBFw-] found
Submit result: 31q894hUlBo1rgfcs9UJqpdCBFw- has been confirmed
Track | CTDB Status
1 | ( 94/124) Accurately ripped
2 | ( 56/124) Accurately ripped
3 | ( 55/124) Accurately ripped
4 | ( 96/124) Accurately ripped
5 | ( 54/124) Accurately ripped
6 | ( 55/124) Accurately ripped
7 | ( 56/124) Accurately ripped
8 | ( 54/124) Accurately ripped
9 | ( 55/124) Accurately ripped

==== Log checksum AC395BE70312F3B98022D9A193156A0B78F4F188E491789FD4303FB986987723 ====

REM GENRE Rock
REM DATE 1985
REM DISCID 8C0CEF09
REM COMMENT “ExactAudioCopy v1.3”
PERFORMER “Dire Straits”
TITLE “Brothers In Arms”
FILE “Dire Straits – Brothers In Arms.flac” WAVE
TRACK 01 AUDIO
TITLE “So Far Away”
PERFORMER “Dire Straits”
INDEX 00 00:00:00
INDEX 01 00:00:32
TRACK 02 AUDIO
TITLE “Money For Nothing”
PERFORMER “Dire Straits”
INDEX 00 05:05:72
INDEX 01 05:12:47
TRACK 03 AUDIO
TITLE “Walk Of Life”
PERFORMER “Dire Straits”
INDEX 00 13:36:65
INDEX 01 13:38:50
TRACK 04 AUDIO
TITLE “Your Latest Trick”
PERFORMER “Dire Straits”
INDEX 00 17:46:12
INDEX 01 17:51:12
TRACK 05 AUDIO
TITLE “Why Worry”
PERFORMER “Dire Straits”
INDEX 00 24:20:40
INDEX 01 24:24:72
TRACK 06 AUDIO
TITLE “Ride Across The River”
PERFORMER “Dire Straits”
INDEX 00 32:48:32
INDEX 01 32:56:25
TRACK 07 AUDIO
TITLE “The Man’s Too Strong”
PERFORMER “Dire Straits”
INDEX 00 39:52:55
INDEX 01 39:54:27
TRACK 08 AUDIO
TITLE “One World”
PERFORMER “Dire Straits”
INDEX 00 44:32:37
INDEX 01 44:34:45
TRACK 09 AUDIO
TITLE “Brothers In Arms”
PERFORMER “Dire Straits”
INDEX 00 48:08:70
INDEX 01 48:15:37


Leave a Reply

Your email address will not be published. Required fields are marked *

Enter the text from the image below
 

This site uses Akismet to reduce spam. Learn how your comment data is processed.