Dire Straits – Brothers In Arms




No Cover available

Artist: Dire Straits
Year: 1985
Genre: Rock
Notes: Discogs
Add. Notes:
Watch Songs on: YouTube
Cover incl.: Yes
Encoder: FLAC
Bitrate: ~700 kBit/s (44.1 kHz/16 Bit/s)
Log & Cue incl.: Yes/Yes
Size: 360,7 MB
Password: “slam” (without ” “)


All Downloads/Hosters are compatible

Download 1
KatFile.com
Turbobit.net
Rapidgator.net
FileFactory.com
Download 2
KatFile.com
Turbobit.net
Rapidgator.net
FileFactory.com

Tracklist:

1 So Far Away 5:12
2 Money For Nothing 8:26
3 Walk Of Life 4:12
4 Your Latest Trick 6:34
5 Why Worry 8:31
6 Ride Across The River 6:58
7 The Man's Too Strong 4:40
8 One World 3:41
9 Brothers In Arms 6:56

EAC-Log, CUE-Sheed & NFO:

Click to open spoiler
Exact Audio Copy V1.1 from 23. June 2015

EAC extraction logfile from 20. October 2016, 13:56

Dire Straits / Brothers In Arms

Used drive : TSSTcorpCDDVDW SH-S203B Adapter: 2 ID: 2

Read mode : Secure
Utilize accurate stream : Yes
Defeat audio cache : Yes
Make use of C2 pointers : No

Read offset correction : 6
Overread into Lead-In and Lead-Out : No
Fill up missing offset samples with silence : Yes
Delete leading and trailing silent blocks : No
Null samples used in CRC calculations : Yes
Used interface : Installed external ASPI interface

Used output format : Internal WAV Routines
Sample format : 44.100 Hz; 16 Bit; Stereo

TOC of the extracted CD

Track | Start | Length | Start sector | End sector
———————————————————
1 | 0:00.00 | 5:12.15 | 0 | 23414
2 | 5:12.15 | 8:26.10 | 23415 | 61374
3 | 13:38.25 | 4:12.37 | 61375 | 80311
4 | 17:50.62 | 6:33.63 | 80312 | 109849
5 | 24:24.50 | 8:31.30 | 109850 | 148204
6 | 32:56.05 | 6:57.70 | 148205 | 179549
7 | 39:54.00 | 4:40.12 | 179550 | 200561
8 | 44:34.12 | 3:41.00 | 200562 | 217136
9 | 48:15.12 | 6:56.50 | 217137 | 248386

Range status and errors

Selected range

Filename E:\unclesandy\Dire Straits – Brothers In Arms (Denon).wav

Peak level 100.0 %
Extraction speed 7.4 X
Range quality 100.0 %
Test CRC FE931345
Copy CRC FE931345
Copy OK

No errors occurred

AccurateRip summary

Track 1 accurately ripped (confidence 23) [1C736F0C] (AR v2)
Track 2 accurately ripped (confidence 23) [48A0EBF0] (AR v2)
Track 3 accurately ripped (confidence 23) [B40F8CBD] (AR v2)
Track 4 accurately ripped (confidence 22) [12E20098] (AR v2)
Track 5 accurately ripped (confidence 22) [2ACA7C6A] (AR v2)
Track 6 accurately ripped (confidence 23) [62677DDA] (AR v2)
Track 7 accurately ripped (confidence 22) [42F3BE30] (AR v2)
Track 8 accurately ripped (confidence 22) [B9DF156C] (AR v2)
Track 9 accurately ripped (confidence 23) [ABDD1098] (AR v2)

All tracks accurately ripped

End of status report

—- CUETools DB Plugin V2.1.6

[CTDB TOCID: Hkxoly.38eoQCHsBVWu8VkWXmWk-] found
Submit result: Hkxoly.38eoQCHsBVWu8VkWXmWk- has been confirmed
Track | CTDB Status
1 | (28/29) Accurately ripped
2 | (29/29) Accurately ripped
3 | (29/29) Accurately ripped
4 | (28/29) Accurately ripped
5 | (29/29) Accurately ripped
6 | (29/29) Accurately ripped
7 | (29/29) Accurately ripped
8 | (29/29) Accurately ripped
9 | (29/29) Accurately ripped

==== Log checksum 7577A926E959370B5F0827CC1F0DF787A1654B63C779CF8F0AB9C0EC8DEA70D5 ====

REM GENRE Rock
REM DATE 1985
REM DISCID 8B0CEF09
REM COMMENT “ExactAudioCopy v1.1”
PERFORMER “Dire Straits”
TITLE “Brothers In Arms”
FILE “Dire Straits – Brothers In Arms.flac” WAVE
TRACK 01 AUDIO
TITLE “So Far Away”
PERFORMER “Dire Straits”
INDEX 01 00:00:00
TRACK 02 AUDIO
TITLE “Money For Nothing”
PERFORMER “Dire Straits”
INDEX 00 05:06:65
INDEX 01 05:12:15
TRACK 03 AUDIO
TITLE “Walk Of Life”
PERFORMER “Dire Straits”
INDEX 00 13:37:50
INDEX 01 13:38:25
TRACK 04 AUDIO
TITLE “Your Latest Trick”
PERFORMER “Dire Straits”
INDEX 00 17:47:00
INDEX 01 17:50:62
TRACK 05 AUDIO
TITLE “Why Worry”
PERFORMER “Dire Straits”
INDEX 00 24:21:25
INDEX 01 24:24:50
TRACK 06 AUDIO
TITLE “Ride Across The River”
PERFORMER “Dire Straits”
INDEX 00 32:49:12
INDEX 01 32:56:05
TRACK 07 AUDIO
TITLE “The Man’s Too Strong”
PERFORMER “Dire Straits”
INDEX 00 39:53:37
INDEX 01 39:54:00
TRACK 08 AUDIO
TITLE “One World”
PERFORMER “Dire Straits”
INDEX 00 44:33:12
INDEX 01 44:34:12
TRACK 09 AUDIO
TITLE “Brothers In Arms”
PERFORMER “Dire Straits”
INDEX 00 48:09:50
INDEX 01 48:15:12


0

Publication author

offline 8 hours

Chaos

3
Comments: 4Publics: 3424Registration: 02-02-2019
Spread the Download

Leave a Reply

Your email address will not be published. Required fields are marked *

Enter the text from the image below
 

This site uses Akismet to reduce spam. Learn how your comment data is processed.