Dire Straits – Brothers In Arms




No Cover available

Artist: Dire Straits
Year: 1985
Genre: Rock
Notes: Discogs
Add. Notes:
Watch Songs on: YouTube
Cover incl.: Yes
Encoder: FLAC
Bitrate: ~700 kBit/s (44.1 kHz/16 Bit/s)
Log & Cue incl.: Yes/Yes
Size: 363,7 MB
Password: “slam” (without ” “)


All Downloads/Hosters are compatible

Download 1
KatFile.com
Turbobit.net
Rapidgator.net
FileFactory.com
Download 2
KatFile.com
Turbobit.net
Rapidgator.net
FileFactory.com

Tracklist:

1 So Far Away 5:12
2 Money For Nothing 8:26
3 Walk Of Life 4:12
4 Your Latest Trick 6:34
5 Why Worry 8:31
6 Ride Across The River 6:58
7 The Man's Too Strong 4:40
8 One World 3:41
9 Brothers In Arms 6:56

EAC-Log, CUE-Sheed & NFO:

Click to open spoiler
Exact Audio Copy V1.1 from 23. June 2015

Отчёт EAC об извлечении, выполненном 30. июня 2016, 21:48

Dire Straits / Brothers In Arms

Дисковод: Optiarc BD RW BD-5750H Adapter: 1 ID: 0

Режим чтения : Достоверность
Использование точного потока : Да
Отключение кэша аудио : Да
Использование указателей C2 : Нет

Коррекция смещения при чтении : 48
Способность читать области Lead-in и Lead-out : Нет
Заполнение пропущенных сэмплов тишиной : Да
Удаление блоков с тишиной в начале и конце : Нет
При вычислениях CRC использовались нулевые сэмплы : Да
Интерфейс : Встроенный Win32-интерфейс для Win NT/2000

Выходной формат : Пользовательский кодировщик
Выбранный битрейт : 1024 kBit/s
Качество : Высокий
Добавление ID3-тега : Нет
Утилита сжатия : C:\Program Files (x86)\Exact Audio Copy\FLAC\FLAC.EXE
Дополнительные параметры : -V -8 -T “Date=%year%” -T “Genre=%genre%” %source%

TOC извлечённого CD

Трек | Старт | Длительность | Начальный сектор | Конечный сектор
———————————————————————
1 | 0:00.00 | 5:12.15 | 0 | 23414
2 | 5:12.15 | 8:26.02 | 23415 | 61366
3 | 13:38.17 | 4:12.35 | 61367 | 80301
4 | 17:50.52 | 6:33.63 | 80302 | 109839
5 | 24:24.40 | 8:31.27 | 109840 | 148191
6 | 32:55.67 | 6:58.03 | 148192 | 179544
7 | 39:53.70 | 4:40.15 | 179545 | 200559
8 | 44:34.10 | 3:40.70 | 200560 | 217129
9 | 48:15.05 | 6:55.57 | 217130 | 248311

Характеристики диапазона извлечения и сообщения об ошибках

Выбранный диапазон

Имя файла C:\Users\UncleVasia\Desktop\Dire Straits 1985 ‘Brothers In Arms’ [Jpn for US Warner Bros. 9 25264-2]\Dire Straits – Brothers In Arms.wav

Пиковый уровень 100.0 %
Скорость извлечения 6.7 X
Качество диапазона 100.0 %
CRC теста BBF1EB9B
CRC копии BBF1EB9B
Копирование… OK

Ошибок не произошло

AccurateRip: сводка

Трек 1 : извлечено точно (доверие 13) [80B9E471] (AR v2)
Трек 2 : извлечено точно (доверие 12) [6E20C818] (AR v2)
Трек 3 : извлечено точно (доверие 13) [33DDF2FA] (AR v2)
Трек 4 : извлечено точно (доверие 13) [55B0D6F6] (AR v2)
Трек 5 : извлечено точно (доверие 13) [81FD8CCF] (AR v2)
Трек 6 : извлечено точно (доверие 13) [19E94EB5] (AR v2)
Трек 7 : извлечено точно (доверие 13) [57AB4A87] (AR v2)
Трек 8 : извлечено точно (доверие 13) [99F81B8D] (AR v2)
Трек 9 : извлечено точно (доверие 12) [65BDCA0A] (AR v2)

Все треки извлечены точно

Конец отчёта

—- CUETools DB Plugin V2.1.6

[CTDB TOCID: 2k7JglyHjBq7HIuybNn3IljwrWE-] found
Submit result: already submitted
Track | CTDB Status
1 | (6/6) Accurately ripped
2 | (6/6) Accurately ripped
3 | (6/6) Accurately ripped
4 | (6/6) Accurately ripped
5 | (6/6) Accurately ripped
6 | (6/6) Accurately ripped
7 | (6/6) Accurately ripped
8 | (6/6) Accurately ripped
9 | (6/6) Accurately ripped

==== Контрольная сумма отчёта 46510BC190CFC6342C31BA93449E1F37D224CFD4A4E70DB72355A394F3DDF5A9 ====

REM GENRE Rock
REM DATE 1985
REM DISCID 890CEE09
REM COMMENT “ExactAudioCopy v1.1”
PERFORMER “Dire Straits”
TITLE “Brothers In Arms”
FILE “Dire Straits – Brothers In Arms.flac” WAVE
TRACK 01 AUDIO
TITLE “So Far Away”
PERFORMER “Dire Straits”
INDEX 01 00:00:00
TRACK 02 AUDIO
TITLE “Money For Nothing”
PERFORMER “Dire Straits”
INDEX 00 05:05:40
INDEX 01 05:12:15
TRACK 03 AUDIO
TITLE “Walk Of Life”
PERFORMER “Dire Straits”
INDEX 00 13:36:32
INDEX 01 13:38:17
TRACK 04 AUDIO
TITLE “Your Latest Trick”
PERFORMER “Dire Straits”
INDEX 00 17:45:55
INDEX 01 17:50:52
TRACK 05 AUDIO
TITLE “Why Worry”
PERFORMER “Dire Straits”
INDEX 00 24:20:07
INDEX 01 24:24:40
TRACK 06 AUDIO
TITLE “Ride Across The River”
PERFORMER “Dire Straits”
INDEX 00 32:48:00
INDEX 01 32:55:67
TRACK 07 AUDIO
TITLE “The Man’s Too Strong”
PERFORMER “Dire Straits”
INDEX 00 39:52:22
INDEX 01 39:53:70
TRACK 08 AUDIO
TITLE “One World”
PERFORMER “Dire Straits”
INDEX 00 44:32:05
INDEX 01 44:34:10
TRACK 09 AUDIO
TITLE “Brothers In Arms”
PERFORMER “Dire Straits”
INDEX 00 48:08:37
INDEX 01 48:15:05


0

Publication author

offline 8 hours

Chaos

3
Comments: 4Publics: 3424Registration: 02-02-2019
Spread the Download

Leave a Reply

Your email address will not be published. Required fields are marked *

Enter the text from the image below
 

This site uses Akismet to reduce spam. Learn how your comment data is processed.