Dire Straits – Alchemy – Dire Straits Live




No Cover available

Artist: Dire Straits
Year: 1984
Genre: Rock
Notes: Discogs
Add. Notes:
Watch Songs on: YouTube
Cover incl.: Yes
Encoder: FLAC
Bitrate: ~900 kBit/s (44.1 kHz/16 Bit/s)
Log & Cue incl.: Yes/Yes
Size: 644,2 MB
Password: “slam” (without ” “)


All Downloads/Hosters are compatible

Download 1
KatFile.com
Turbobit.net
Rapidgator.net
FileFactory.com
Download 2
KatFile.com
Turbobit.net
Rapidgator.net
FileFactory.com

Tracklist:

1-1 Once Upon A Time In The West 13:00
1-2 Expresso Love 5:36
1-3 Romeo And Juliet 8:16
1-4 Love Over Gold 3:27
1-5 Private Investigations 7:34
1-6 Sultans Of Swing 10:58
2-1 Two Young Lovers 4:51
2-2 Tunnel Of Love 14:23
2-3 Telegraph Road 13:43
2-4 Solid Rock 6:01
2-5 Going Home - Theme From 'Local Hero' 6:02

EAC-Log, CUE-Sheed & NFO:

Click to open spoiler
Exact Audio Copy V1.3 from 2. September 2016

EAC extraction logfile from 27. July 2018, 14:22

Dire Straits / Alchemy – Dire Straits Live (Part One)

Used drive : TSSTcorpCDDVDW TS-L633B Adapter: 1 ID: 0

Read mode : Secure
Utilize accurate stream : Yes
Defeat audio cache : Yes
Make use of C2 pointers : No

Read offset correction : 6
Overread into Lead-In and Lead-Out : No
Fill up missing offset samples with silence : Yes
Delete leading and trailing silent blocks : No
Null samples used in CRC calculations : Yes
Used interface : Native Win32 interface for Win NT & 2000

Used output format : Internal WAV Routines
Sample format : 44.100 Hz; 16 Bit; Stereo

TOC of the extracted CD

Track | Start | Length | Start sector | End sector
———————————————————
1 | 0:00.00 | 13:01.50 | 0 | 58624
2 | 13:01.50 | 5:33.20 | 58625 | 83619
3 | 18:34.70 | 8:17.32 | 83620 | 120926
4 | 26:52.27 | 3:27.23 | 120927 | 136474
5 | 30:19.50 | 7:34.17 | 136475 | 170541
6 | 37:53.67 | 10:56.03 | 170542 | 219744

Range status and errors

Selected range

Filename F:\Alexharvey\Dire Straits – Alchemy – Dire Straits Live (Part One).wav

Peak level 89.1 %
Extraction speed 2.8 X
Range quality 100.0 %
Test CRC 84A38EC6
Copy CRC 84A38EC6
Copy OK

No errors occurred

AccurateRip summary

Track 1 accurately ripped (confidence 28) [77326C92] (AR v2)
Track 2 accurately ripped (confidence 28) [1A681517] (AR v2)
Track 3 accurately ripped (confidence 30) [2BE8937A] (AR v2)
Track 4 accurately ripped (confidence 30) [FCC37CED] (AR v2)
Track 5 accurately ripped (confidence 29) [069CA3EA] (AR v2)
Track 6 accurately ripped (confidence 27) [E434793C] (AR v2)

All tracks accurately ripped

End of status report

—- CUETools DB Plugin V2.1.6

[CTDB TOCID: KQJ1tZWYfHulgurlvzXR4B_TF.0-] found
Submit result: already submitted
Track | CTDB Status
1 | (63/64) Accurately ripped
2 | (62/64) Accurately ripped
3 | (62/64) Accurately ripped
4 | (61/64) Accurately ripped
5 | (60/64) Accurately ripped
6 | (55/64) Accurately ripped

==== Log checksum 4BA269C788131CB6DF7FF510354F5AB3B492BD423C0618179BB4E89D6BC10256 ====

Exact Audio Copy V1.3 from 2. September 2016

EAC extraction logfile from 27. July 2018, 15:03

Dire Straits / Alchemy – Dire Straits Live (Part Two)

Used drive : TSSTcorpCDDVDW TS-L633B Adapter: 1 ID: 0

Read mode : Secure
Utilize accurate stream : Yes
Defeat audio cache : Yes
Make use of C2 pointers : No

Read offset correction : 6
Overread into Lead-In and Lead-Out : No
Fill up missing offset samples with silence : Yes
Delete leading and trailing silent blocks : No
Null samples used in CRC calculations : Yes
Used interface : Native Win32 interface for Win NT & 2000

Used output format : Internal WAV Routines
Sample format : 44.100 Hz; 16 Bit; Stereo

TOC of the extracted CD

Track | Start | Length | Start sector | End sector
———————————————————
1 | 0:00.33 | 4:49.52 | 33 | 21759
2 | 4:50.10 | 14:23.25 | 21760 | 86509
3 | 19:13.35 | 13:43.00 | 86510 | 148234
4 | 32:56.35 | 5:59.65 | 148235 | 175224
5 | 38:56.25 | 6:03.08 | 175225 | 202457

Range status and errors

Selected range

Filename F:\Alexharvey\Dire Straits – Alchemy – Dire Straits Live (Part Two).wav

Peak level 95.5 %
Extraction speed 2.7 X
Range quality 100.0 %
Test CRC 222B3CD7
Copy CRC 222B3CD7
Copy OK

No errors occurred

AccurateRip summary

Track 1 accurately ripped (confidence 59) [26EDDE3C] (AR v2)
Track 2 accurately ripped (confidence 59) [F345E900] (AR v2)
Track 3 accurately ripped (confidence 59) [515DB471] (AR v2)
Track 4 accurately ripped (confidence 59) [C504B7B4] (AR v2)
Track 5 accurately ripped (confidence 58) [32E5E43F] (AR v2)

All tracks accurately ripped

End of status report

—- CUETools DB Plugin V2.1.6

[CTDB TOCID: UvxqltcUJXefDBEpzF6oFjeUdCM-] found
Submit result: already submitted
Track | CTDB Status
1 | (108/135) Accurately ripped, or (20/135) differs in 6 samples @01:23:61,01:53:68,02:28:06,03:00:02,03:26:59,03:35:24
2 | (111/135) Accurately ripped, or (20/135) differs in 13 samples @00:44:66,00:50:06,00:54:56,01:13:61,01:20:63,01:32:60,02:04:28,03:48:04,06:09:44,08:51:71,09:28:24,13:00:08,13:55:08
3 | (107/135) Accurately ripped, or (20/135) differs in 6 samples @00:43:36,03:48:08,05:13:71,05:27:22,06:19:12,07:17:49
4 | (111/135) Accurately ripped, or (20/135) differs in 6 samples @01:35:30,02:31:38,03:06:04,03:45:58,03:46:13,04:19:45
5 | (109/135) Accurately ripped, or (20/135) differs in 7 samples @00:23:50,00:24:44,00:48:48,03:15:35,03:17:25,05:25:53,05:44:00

==== Log checksum 87C2992DAB4B9BFB30C96262C4E57E08B0B02436921B072C3B2E1B44BF45007E ====

REM GENRE Rock
REM DATE 1984
REM DISCID 450B7106
REM COMMENT “ExactAudioCopy v1.3”
PERFORMER “Dire Straits”
TITLE “Alchemy – Dire Straits Live (CD1)”
FILE “Dire Straits – Alchemy – Dire Straits Live (CD1).flac” WAVE
TRACK 01 AUDIO
TITLE “Once Upon A Time In The West”
PERFORMER “Dire Straits”
FLAGS PRE
INDEX 01 00:00:00
TRACK 02 AUDIO
TITLE “Expresso Love”
PERFORMER “Dire Straits”
FLAGS PRE
INDEX 00 12:58:35
INDEX 01 13:01:50
TRACK 03 AUDIO
TITLE “Romeo And Juliet”
PERFORMER “Dire Straits”
FLAGS PRE
INDEX 01 18:34:70
TRACK 04 AUDIO
TITLE “Love Over Gold”
PERFORMER “Dire Straits”
FLAGS PRE
INDEX 01 26:52:27
TRACK 05 AUDIO
TITLE “Private Investigations”
PERFORMER “Dire Straits”
FLAGS PRE
INDEX 01 30:19:50
TRACK 06 AUDIO
TITLE “Sultans Of Swing”
PERFORMER “Dire Straits”
FLAGS PRE
INDEX 01 37:53:67

REM GENRE Rock
REM DATE 1984
REM DISCID 440A8B05
REM COMMENT “ExactAudioCopy v1.3”
PERFORMER “Dire Straits”
TITLE “Alchemy – Dire Straits Live (CD2)”
FILE “Dire Straits – Alchemy – Dire Straits Live (CD2).flac” WAVE
TRACK 01 AUDIO
TITLE “Two Young Lovers”
PERFORMER “Dire Straits”
INDEX 00 00:00:00
INDEX 01 00:00:33
TRACK 02 AUDIO
TITLE “Tunnel Of Love”
PERFORMER “Dire Straits”
INDEX 01 04:50:10
TRACK 03 AUDIO
TITLE “Telegraph Road”
PERFORMER “Dire Straits”
INDEX 01 19:13:35
TRACK 04 AUDIO
TITLE “Solid Rock”
PERFORMER “Dire Straits”
INDEX 01 32:56:35
TRACK 05 AUDIO
TITLE “Going Home – Theme From ‘Local Hero'”
PERFORMER “Dire Straits”
INDEX 01 38:56:25


Leave a Reply

Your email address will not be published. Required fields are marked *

This site uses Akismet to reduce spam. Learn how your comment data is processed.