Dire Straits – Alchem – Dire Straits Live




[Total: 0    Average: 0/5]

Artist: Dire Straits
Year: 1984
Genre: Rock
Notes: Discogs
Add. Notes:
Cover incl.: Yes
Encoder: FLAC
Bitrate: ~900 kBit/s (44.1 kHz/16 Bit/s)
Log & Cue incl.: Yes
Size: 770 MB
Password: “slam” (without ” “)


All Downloads/Hosters are compatible

Download 1
KatFile.com
Turbobit.net
FileFactory.com
Rapidgator.net
Download 2
KatFile.com
Turbobit.net
FileFactory.com
Rapidgator.net

Tracklist:

1-1 - Once Upon A Time In The 
West - 13:00
1-2 - Expresso Love - 5:36
1-3 - Romeo And Juliet - 8:16
1-4 - Love Over Gold - 3:27
1-5 - Private Investigations - 7:34
1-6 - Sultans Of Swing - 10:58

2-1 - Two Young Lovers - 4:51
2-2 - Tunnel Of Love - 14:23
2-3 - Telegraph Road - 13:43
2-4 - Solid Rock - 6:01
2-5 - Going Home - Theme From 
'Local Hero' - 6:02

EAC-Log, CUE-Sheed & NFO:

Click to open spoiler
Exact Audio Copy V1.0 beta 3 from 29. August 2011

EAC extraction logfile from 7. May 2013, 0:00

Dire Straits / Alchemy – Dire Straits Live [1v2]

Used drive : PLEXTOR DVDR PX-716A Adapter: 0 ID: 0

Read mode : Secure
Utilize accurate stream : Yes
Defeat audio cache : Yes
Make use of C2 pointers : No

Read offset correction : 30
Overread into Lead-In and Lead-Out : Yes
Fill up missing offset samples with silence : Yes
Delete leading and trailing silent blocks : No
Null samples used in CRC calculations : Yes
Used interface : Native Win32 interface for Win NT & 2000

Used output format : User Defined Encoder
Selected bitrate : 896 kBit/s
Quality : High
Add ID3 tag : No
Command line compressor : C:\Program Files (x86)\FLAC\flac.exe
Additional command line options : -V -8 -T “Date=%year%” -T “Genre=%genre%” %source%

TOC of the extracted CD

Track | Start | Length | Start sector | End sector
———————————————————
1 | 0:00.32 | 13:00.63 | 32 | 58594
2 | 13:01.20 | 5:36.00 | 58595 | 83794
3 | 18:37.20 | 8:16.37 | 83795 | 121031
4 | 26:53.57 | 3:27.25 | 121032 | 136581
5 | 30:21.07 | 7:34.18 | 136582 | 170649
6 | 37:55.25 | 10:58.05 | 170650 | 220004

Range status and errors

Selected range

Filename E:\Youtracker\Dire Straits – Collection\Compilations & Live\1984 Dire Straits – Alchemy (Live) (Warner 9 25085-2 target cd)\pART oNE\Dire Straits – Alchemy – Dire Straits Live [1v2].wav

Peak level 89.1 %
Extraction speed 1.6 X
Range quality 100.0 %
Test CRC 435B5BE0
Copy CRC 435B5BE0
Copy OK

No errors occurred

AccurateRip summary

Track 1 accurately ripped (confidence 30) [360E2DDB] (AR v2)
Track 2 accurately ripped (confidence 33) [7A7624E2] (AR v2)
Track 3 accurately ripped (confidence 31) [0E0449C9] (AR v2)
Track 4 accurately ripped (confidence 32) [26301079] (AR v2)
Track 5 accurately ripped (confidence 31) [10664214] (AR v2)
Track 6 accurately ripped (confidence 28) [D623FE6F] (AR v2)

All tracks accurately ripped

End of status report

—- CUETools DB Plugin V2.1.5

[CTDB TOCID: CBcShyJHcPdeNuP2.nNjRE44PaY-] found
Submit result: CBcShyJHcPdeNuP2.nNjRE44PaY- has been confirmed
Track | CTDB Status
1 | (4/6) Accurately ripped
2 | (4/6) Accurately ripped
3 | (4/6) Accurately ripped
4 | (4/6) Accurately ripped
5 | (4/6) Accurately ripped
6 | (4/6) Accurately ripped

==== Log checksum 5581DE6539D881877066449AEE10E80E1B7F95DFB658C212352466651CE0AE05 ====

Exact Audio Copy V1.0 beta 3 from 29. August 2011

EAC extraction logfile from 7. May 2013, 1:06

Dire Straits / Alchemy – Dire Straits Live [2v2]

Used drive : PLEXTOR DVDR PX-716A Adapter: 0 ID: 0

Read mode : Secure
Utilize accurate stream : Yes
Defeat audio cache : Yes
Make use of C2 pointers : No

Read offset correction : 30
Overread into Lead-In and Lead-Out : Yes
Fill up missing offset samples with silence : Yes
Delete leading and trailing silent blocks : No
Null samples used in CRC calculations : Yes
Used interface : Native Win32 interface for Win NT & 2000

Used output format : User Defined Encoder
Selected bitrate : 896 kBit/s
Quality : High
Add ID3 tag : No
Command line compressor : C:\Program Files (x86)\FLAC\flac.exe
Additional command line options : -V -8 -T “Date=%year%” -T “Genre=%genre%” %source%

TOC of the extracted CD

Track | Start | Length | Start sector | End sector
———————————————————
1 | 0:00.33 | 4:51.62 | 33 | 21919
2 | 4:52.20 | 14:23.25 | 21920 | 86669
3 | 19:15.45 | 13:43.00 | 86670 | 148394
4 | 32:58.45 | 6:01.45 | 148395 | 175514
5 | 39:00.15 | 6:02.48 | 175515 | 202712

Range status and errors

Selected range

Filename E:\Youtracker\Dire Straits – Collection\Compilations & Live\1984 Dire Straits – Alchemy (Live) (Warner 9 25085-2 target cd)\pART tWO\Dire Straits – Alchemy – Dire Straits Live [2v2].wav

Peak level 95.5 %
Extraction speed 1.5 X
Range quality 99.9 %
Test CRC 9655B65A
Copy CRC 9655B65A
Copy OK

No errors occurred

AccurateRip summary

Track 1 accurately ripped (confidence 12) [34AA228E] (AR v2)
Track 2 accurately ripped (confidence 13) [835D8032] (AR v2)
Track 3 accurately ripped (confidence 13) [7B28D02D] (AR v2)
Track 4 accurately ripped (confidence 13) [604DEF71] (AR v2)
Track 5 accurately ripped (confidence 12) [DB7E8F2B] (AR v2)

All tracks accurately ripped

End of status report

—- CUETools DB Plugin V2.1.5

[CTDB TOCID: Q7E62r3uXJHw3TmlSUdDfx8lVbg-] found
Submit result: Q7E62r3uXJHw3TmlSUdDfx8lVbg- has been confirmed
Track | CTDB Status
1 | (6/9) Accurately ripped
2 | (5/9) Accurately ripped, or (1/9) differs in 26 samples @08:46:48-08:46:49
3 | (5/9) Accurately ripped, or (1/9) differs in 40 samples @02:39:42,08:58:08
4 | (5/9) Accurately ripped, or (1/9) differs in 33 samples @03:15:29-03:15:30,03:40:15
5 | (5/9) Accurately ripped, or (1/9) differs in 5 samples @01:49:07,05:54:42

==== Log checksum 4ACE4D72EF54D1F44603963934F1FA0D0D615311DBD04FC5B2354D5A6314A643 ====

REM GENRE Rock
REM DATE 1984
REM DISCID 4D0B7506
REM COMMENT “ExactAudioCopy v1.0b3”
PERFORMER “Dire Straits”
TITLE “Alchemy – Dire Straits Live (CD1)”
FILE “Dire Straits – Alchemy – Dire Straits Live (CD1).flac” WAVE
TRACK 01 AUDIO
TITLE “Once Upon A Time In The West”
PERFORMER “Dire Straits”
FLAGS PRE
INDEX 00 00:00:00
INDEX 01 00:00:32
TRACK 02 AUDIO
TITLE “Expresso Love”
PERFORMER “Dire Straits”
FLAGS PRE
INDEX 01 13:01:20
TRACK 03 AUDIO
TITLE “Romeo And Juliet”
PERFORMER “Dire Straits”
FLAGS PRE
INDEX 01 18:37:20
TRACK 04 AUDIO
TITLE “Love Over Gold”
PERFORMER “Dire Straits”
FLAGS PRE
INDEX 01 26:53:57
TRACK 05 AUDIO
TITLE “Private Investigations”
PERFORMER “Dire Straits”
FLAGS PRE
INDEX 01 30:21:07
TRACK 06 AUDIO
TITLE “Sultans Of Swing”
PERFORMER “Dire Straits”
FLAGS PRE
INDEX 01 37:55:25

REM GENRE Rock
REM DATE 1984
REM DISCID 3C0A8E05
REM COMMENT “ExactAudioCopy v1.0b3”
PERFORMER “Dire Straits”
TITLE “Alchemy – Dire Straits Live (CD2)”
FILE “Dire Straits – Alchemy – Dire Straits Live (CD2).flac” WAVE
TRACK 01 AUDIO
TITLE “Two Young Lovers”
PERFORMER “Dire Straits”
FLAGS PRE
INDEX 00 00:00:00
INDEX 01 00:00:33
TRACK 02 AUDIO
TITLE “Tunnel Of Love”
PERFORMER “Dire Straits”
FLAGS PRE
INDEX 01 04:52:20
TRACK 03 AUDIO
TITLE “Telegraph Road”
PERFORMER “Dire Straits”
FLAGS PRE
INDEX 01 19:15:45
TRACK 04 AUDIO
TITLE “Solid Rock”
PERFORMER “Dire Straits”
FLAGS PRE
INDEX 01 32:58:45
TRACK 05 AUDIO
TITLE “Going Home – Theme From ‘Local Hero'”
PERFORMER “Dire Straits”
FLAGS PRE
INDEX 01 39:00:15


Spread the Download

Leave a Reply

Your email address will not be published. Required fields are marked *

Enter the text from the image below
 

This site uses Akismet to reduce spam. Learn how your comment data is processed.