Dio – The Very Beast Of Vol. 2 (Remastered)




[Total: 0    Average: 0/5]

Artist: Dio
Year: 2012
Genre: Metal
Notes: Discogs
Add. Notes: Remastered
Cover incl.: Yes
Encoder: FLAC
Bitrate: ~900 kBit/s (44.1 kHz/16 Bit/s)
Log & Cue incl.: Yes
Size: 617,85 MB
Password: “slam” (without ” “)


All Downloads/Hosters are compatible

Download 1
Share-online.biz
KatFile.com
Rapidgator.net
Download 2
Share-online.biz
KatFile.com
Rapidgator.net

Tracklist:

1 - Killing The Dragon - 4:24
2 - Push - 4:04
3 - The Eyes - 6:26
4 - Along Comes A Spider - 3:30
5 - Better In The Dark - 3:42
6 - Fever Dreams - 4:36
7 - Black - 3:08
8 - Feed My Head - 5:40
9 - Shivers - 4:16
10 - Hunter Of The Heart (Live) - 5:17
11 - One More For The Road - 3:18
12 - Lord Of The Last Day - 4:02
13 - Electra - 6:20
14 - As Long As It's Not About Love - 6:29
15 - This Is Your Life - 3:32
16 - Metal Will Never Die - 5:22
17 - The Prisoner Of Paradise - 4:02

EAC-Log, CUE-Sheed & NFO:

Click to open spoiler
Exact Audio Copy V1.0 beta 3 from 29. August 2011

EAC extraction logfile from 8. February 2013, 7:28

Dio / The Very Beast Of Vol 2 (NEG-015)

Used drive : TEAC DV-W28EA Adapter: 0 ID: 1

Read mode : Secure
Utilize accurate stream : Yes
Defeat audio cache : Yes
Make use of C2 pointers : No

Read offset correction : 102
Overread into Lead-In and Lead-Out : No
Fill up missing offset samples with silence : Yes
Delete leading and trailing silent blocks : No
Null samples used in CRC calculations : Yes
Used interface : Native Win32 interface for Win NT & 2000

Used output format : Internal WAV Routines
Sample format : 44.100 Hz; 16 Bit; Stereo

TOC of the extracted CD

Track | Start | Length | Start sector | End sector
———————————————————
1 | 0:00.00 | 4:25.35 | 0 | 19909
2 | 4:25.35 | 4:05.36 | 19910 | 38320
3 | 8:30.71 | 6:27.52 | 38321 | 67397
4 | 14:58.48 | 3:31.34 | 67398 | 83256
5 | 18:30.07 | 3:43.10 | 83257 | 99991
6 | 22:13.17 | 4:37.45 | 99992 | 120811
7 | 26:50.62 | 3:09.31 | 120812 | 135017
8 | 30:00.18 | 5:41.26 | 135018 | 160618
9 | 35:41.44 | 4:17.23 | 160619 | 179916
10 | 39:58.67 | 5:18.35 | 179917 | 203801
11 | 45:17.27 | 3:19.34 | 203802 | 218760
12 | 48:36.61 | 4:02.48 | 218761 | 236958
13 | 52:39.34 | 6:20.72 | 236959 | 265530
14 | 59:00.31 | 6:30.47 | 265531 | 294827
15 | 65:31.03 | 3:33.22 | 294828 | 310824
16 | 69:04.25 | 5:21.59 | 310825 | 334958
17 | 74:26.09 | 4:03.29 | 334959 | 353212

Range status and errors

Selected range

Filename F:\bigggwest\Dio – The Very Beast Of Vol 2 (NEG-015).wav

Peak level 99.9 %
Extraction speed 4.1 X
Range quality 100.0 %
Test CRC 51D79E37
Copy CRC 51D79E37
Copy OK

No errors occurred

AccurateRip summary

Track 1 accurately ripped (confidence 1) [57BB19FA] (AR v2)
Track 2 accurately ripped (confidence 1) [FDB699F5] (AR v2)
Track 3 accurately ripped (confidence 1) [B97494A0] (AR v2)
Track 4 accurately ripped (confidence 1) [7D3E3304] (AR v2)
Track 5 accurately ripped (confidence 1) [15B8A652] (AR v2)
Track 6 accurately ripped (confidence 1) [160F8A65] (AR v2)
Track 7 accurately ripped (confidence 1) [BE73B8C3] (AR v2)
Track 8 accurately ripped (confidence 1) [6074D1C0] (AR v2)
Track 9 accurately ripped (confidence 1) [258EB1AD] (AR v2)
Track 10 accurately ripped (confidence 1) [4DC28666] (AR v2)
Track 11 accurately ripped (confidence 1) [95F37E45] (AR v2)
Track 12 accurately ripped (confidence 1) [76531DDF] (AR v2)
Track 13 accurately ripped (confidence 1) [77A5F0A1] (AR v2)
Track 14 accurately ripped (confidence 1) [0C32CD15] (AR v2)
Track 15 accurately ripped (confidence 1) [A1F4E307] (AR v2)
Track 16 accurately ripped (confidence 1) [CA3507CB] (AR v2)
Track 17 accurately ripped (confidence 1) [02494A54] (AR v2)

All tracks accurately ripped

End of status report

==== Log checksum 95132E7FB96E3831523190E6F24C5D90A7916D675FCE9CBACE5A740D1688A6EB ====

REM GENRE “Heavy Metal”
REM DATE 2012
REM DISCID CF126511
REM COMMENT “ExactAudioCopy v1.0b3”
PERFORMER “Dio”
TITLE “The Very Beast Of Vol 2 (NEG-015)”
FILE “Dio – The Very Beast Of Vol 2 (NEG-015).flac” WAVE
TRACK 01 AUDIO
TITLE “Killing The Dragon”
PERFORMER “Dio”
ISRC UY=EG1201501
INDEX 01 00:00:00
TRACK 02 AUDIO
TITLE “Push”
PERFORMER “Dio”
ISRC UY=EG1201502
INDEX 01 04:25:35
TRACK 03 AUDIO
TITLE “The Eyes”
PERFORMER “Dio”
ISRC UY=EG1201503
INDEX 01 08:30:71
TRACK 04 AUDIO
TITLE “Along Comes A Spider”
PERFORMER “Dio”
ISRC UY=EG1201504
INDEX 01 14:58:48
TRACK 05 AUDIO
TITLE “Better In The Dark”
PERFORMER “Dio”
ISRC UY=EG1201505
INDEX 01 18:30:07
TRACK 06 AUDIO
TITLE “Fever Dreams”
PERFORMER “Dio”
ISRC UY=EG1201506
INDEX 01 22:13:17
TRACK 07 AUDIO
TITLE “Black”
PERFORMER “Dio”
ISRC UY=EG1201507
INDEX 01 26:50:62
TRACK 08 AUDIO
TITLE “Feed My Head”
PERFORMER “Dio”
ISRC UY=EG1201508
INDEX 01 30:00:18
TRACK 09 AUDIO
TITLE “Shivers”
PERFORMER “Dio”
ISRC UY=EG1201509
INDEX 00 35:39:26
INDEX 01 35:41:44
TRACK 10 AUDIO
TITLE “Hunter Of The Heart (Live)”
PERFORMER “Dio”
ISRC UY=EG1201510
INDEX 00 39:57:17
INDEX 01 39:58:67
TRACK 11 AUDIO
TITLE “One More For The Road”
PERFORMER “Dio”
ISRC UY=EG1201511
INDEX 00 45:14:49
INDEX 01 45:17:27
TRACK 12 AUDIO
TITLE “Lord Of The Last Day”
PERFORMER “Dio”
ISRC UY=EG1201512
INDEX 00 48:34:61
INDEX 01 48:36:61
TRACK 13 AUDIO
TITLE “Electra (Bonus Track)”
PERFORMER “Dio”
ISRC UY=EG1201513
INDEX 01 52:39:34
TRACK 14 AUDIO
TITLE “As Long As It’s Not About Love”
PERFORMER “Dio”
ISRC UY=EG1201514
INDEX 01 59:00:31
TRACK 15 AUDIO
TITLE “This Is Your Life”
PERFORMER “Dio”
ISRC UY=EG1201515
INDEX 00 65:29:03
INDEX 01 65:31:03
TRACK 16 AUDIO
TITLE “Metal Will Never Die (Bonus Track)”
PERFORMER “Dio”
ISRC UY=EG1201516
INDEX 00 68:56:25
INDEX 01 69:04:25
TRACK 17 AUDIO
TITLE “The Prisoner of Paradise (Bonus Track)”
PERFORMER “Dio”
ISRC UY=EG1201517
INDEX 00 74:24:09
INDEX 01 74:26:09


Spread the Download

Leave a Reply

Your email address will not be published. Required fields are marked *

Enter the text from the image below
 

This site uses Akismet to reduce spam. Learn how your comment data is processed.