Dio – The Very Beast of Dio (Remastered)




[Total: 0    Average: 0/5]

Artist: Dio
Year: 2000
Genre: Rock
Notes: Discogs
Add. Notes: Remastered
Cover incl.: Yes
Encoder: FLAC
Bitrate: ~900 kBit/s (44.1 kHz/16 Bit/s)
Log & Cue incl.: Yes
Size: 535,19 MB
Password: “slam” (without ” “)


All Downloads/Hosters are compatible

Download 1
Share-online.biz
KatFile.com
Rapidgator.net
Download 2
Share-online.biz
KatFile.com
Rapidgator.net

Tracklist:

1 - Stand Up And Shout - 3:18
2 - Holy Diver - 5:54
3 - Rainbow In The Dark - 4:16
4 - Straight Through The Heart - 4:36
5 - We Rock - 4:35
6 - The Last In Line - 5:47
7 - Mystery - 3:58
8 - King Of Rock And Roll - 3:51
9 - Sacred Heart - 6:29
10 - Hungry For Heaven - 4:13
11 - Rock 'N' Roll Children - 4:34
12 - Man On The Silver Mountain (Live) - 2:28
13 - Dream Evil - 4:25
14 - I Could Have Been A Dreamer - 4:44
15 - Lock Up The Wolves - 8:33
16 - Strange Highways - 6:52

EAC-Log, CUE-Sheed & NFO:

Click to open spoiler
Exact Audio Copy V0.99 prebeta 5 from 4. May 2009

Отчёт EAC об извлечении, выполненном 12. мая 2010, 20:14

Dio / The Very Beast of Dio

Дисковод: Optiarc DVD RW AD-7173S Adapter: 1 ID: 0

Режим чтения : Достоверность
Использование точного потока : Да
Отключение кэша аудио : Да
Использование указателей C2 : Нет

Коррекция смещения при чтении : 48
Способность читать области Lead-in и Lead-out : Нет
Заполнение пропущенных сэмплов тишиной : Да
Удаление блоков с тишиной в начале и конце : Нет
При вычислениях CRC использовались нулевые сэмплы : Да
Интерфейс : Установленный внешний ASPI-интерфейс

Выходной формат : Внутренние WAV-операции
Формат сэмплов : 44.100 Гц; 16 бит; стерео

TOC извлечённого CD

Трек | Старт | Длительность | Начальный сектор | Конечный сектор
———————————————————————
1 | 0:00.32 | 3:18.63 | 32 | 14944
2 | 3:19.20 | 5:54.07 | 14945 | 41501
3 | 9:13.27 | 4:16.70 | 41502 | 60771
4 | 13:30.22 | 4:36.28 | 60772 | 81499
5 | 18:06.50 | 4:35.60 | 81500 | 102184
6 | 22:42.35 | 5:47.20 | 102185 | 128229
7 | 28:29.55 | 3:58.00 | 128230 | 146079
8 | 32:27.55 | 3:51.47 | 146080 | 163451
9 | 36:19.27 | 6:29.10 | 163452 | 192636
10 | 42:48.37 | 4:13.15 | 192637 | 211626
11 | 47:01.52 | 4:33.73 | 211627 | 232174
12 | 51:35.50 | 2:28.35 | 232175 | 243309
13 | 54:04.10 | 4:25.30 | 243310 | 263214
14 | 58:29.40 | 4:44.00 | 263215 | 284514
15 | 63:13.40 | 8:33.40 | 284515 | 323029
16 | 71:47.05 | 6:52.70 | 323030 | 353999

Характеристики диапазона извлечения и сообщения об ошибках

Выбранный диапазон

Имя файла G:\Торент\Dio\Dio – The Very Beast of Dio.wav

Пиковый уровень 96.2 %
Качество диапазона 99.9 %
CRC теста 7B1418F7
CRC копии 7B1418F7
Копирование… OK

Ошибок не произошло

AccurateRip: сводка

Трек 1 точное извлечение (доверие 21) [1C3A5B83]
Трек 2 точное извлечение (доверие 21) [872F5B9B]
Трек 3 точное извлечение (доверие 21) [28F6D067]
Трек 4 точное извлечение (доверие 20) [4F0D2E0B]
Трек 5 точное извлечение (доверие 20) [891BA73D]
Трек 6 точное извлечение (доверие 20) [FE16063F]
Трек 7 точное извлечение (доверие 20) [9DF8F24B]
Трек 8 точное извлечение (доверие 20) [20A18093]
Трек 9 точное извлечение (доверие 20) [F3FE351D]
Трек 10 точное извлечение (доверие 20) [9BD233EB]
Трек 11 точное извлечение (доверие 20) [9A83708A]
Трек 12 точное извлечение (доверие 20) [94D0BBDF]
Трек 13 точное извлечение (доверие 19) [37E02451]
Трек 14 точное извлечение (доверие 18) [7D45ADE5]
Трек 15 точное извлечение (доверие 18) [6E4D7FF0]
Трек 16 точное извлечение (доверие 20) [6A57884B]

Все треки извлечены точно

Конец отчёта

REM ACCURATERIPID 002b6247-020b58c8-dc127010
REM GENRE “Metal”
REM DATE 2000
REM DISCID DC127010
REM COMMENT “ExactAudioCopy v0.99pb5”
PERFORMER “Dio”
TITLE “The Very Beast of Dio”
FILE “Dio – The Very Beast of Dio-new.flac” WAVE
TRACK 01 AUDIO
TITLE “Stand Up And Shout”
PERFORMER “Dio”
INDEX 00 00:00:00
INDEX 01 00:00:32
TRACK 02 AUDIO
TITLE “Holy Diver”
PERFORMER “Dio”
INDEX 00 03:18:30
INDEX 01 03:19:20
TRACK 03 AUDIO
TITLE “Rainbow In The Dark”
PERFORMER “Dio”
INDEX 00 09:11:52
INDEX 01 09:13:27
TRACK 04 AUDIO
TITLE “Straight Through The Heart”
PERFORMER “Dio”
INDEX 00 13:27:37
INDEX 01 13:30:22
TRACK 05 AUDIO
TITLE “We Rock”
PERFORMER “Dio”
INDEX 00 18:03:55
INDEX 01 18:06:50
TRACK 06 AUDIO
TITLE “The Last In Line”
PERFORMER “Dio”
INDEX 00 22:40:22
INDEX 01 22:42:35
TRACK 07 AUDIO
TITLE “Mystery”
PERFORMER “Dio”
INDEX 00 28:27:57
INDEX 01 28:29:55
TRACK 08 AUDIO
TITLE “King Of Rock And Roll”
PERFORMER “Dio”
INDEX 00 32:27:45
INDEX 01 32:27:55
TRACK 09 AUDIO
TITLE “Sacred Heart”
PERFORMER “Dio”
INDEX 00 36:18:12
INDEX 01 36:19:27
TRACK 10 AUDIO
TITLE “Hungry For Heaven”
PERFORMER “Dio”
INDEX 00 42:46:25
INDEX 01 42:48:37
TRACK 11 AUDIO
TITLE “Rock ‘n’ Roll Children”
PERFORMER “Dio”
INDEX 00 46:59:42
INDEX 01 47:01:52
TRACK 12 AUDIO
TITLE “Man On The Silver Mountain (Live)”
PERFORMER “Dio”
INDEX 00 51:34:72
INDEX 01 51:35:50
TRACK 13 AUDIO
TITLE “Dream Evil”
PERFORMER “Dio”
INDEX 00 54:01:70
INDEX 01 54:04:10
TRACK 14 AUDIO
TITLE “I Could Have Been A Dreamer”
PERFORMER “Dio”
INDEX 00 58:28:22
INDEX 01 58:29:40
TRACK 15 AUDIO
TITLE “Lock Up The Wolves”
PERFORMER “Dio”
INDEX 00 63:11:42
INDEX 01 63:13:40
TRACK 16 AUDIO
TITLE “Strange Highways”
PERFORMER “Dio”
INDEX 00 71:46:05
INDEX 01 71:47:05


Spread the Download

Leave a Reply

Your email address will not be published. Required fields are marked *

Enter the text from the image below
 

This site uses Akismet to reduce spam. Learn how your comment data is processed.