Dio – The Last In Line (Remastered Japanese Edition)




No Cover available

Artist: Dio
Year: 1984/2002
Genre: Metal
Notes: Discogs
Add. Notes: Remastered Japanese Edition
Watch Songs on: YouTube
Cover incl.: Yes
Encoder: FLAC
Bitrate: ~900 kBit/s (44.1 kHz/16 Bit/s)
Log & Cue incl.: Yes/Yes
Size: 276,6 MB
Password: “slam” (without ” “)


All Downloads/Hosters are compatible

Download 1
KatFile.com
Turbobit.net
Rapidgator.net
FileFactory.com
Download 2
KatFile.com
Turbobit.net
Rapidgator.net
FileFactory.com

Tracklist:

1 We Rock 4:32
2 The Last In Line 5:40
3 Breathless 4:01
4 I Speed At Night 3:22
5 One Night In The City 5:14
6 Evil Eyes 3:37
7 Mystery 3:59
8 Eat Your Heart Out 3:49
9 Egypt (The Chains Are On) 6:56

EAC-Log, CUE-Sheed & NFO:

Click to open spoiler
Exact Audio Copy V1.0 beta 3 from 29. August 2011

Отчёт EAC об извлечении, выполненном 27. марта 2013, 21:54

Dio / The Last In Line (Japan UICY-3728)

Дисковод: TSSTcorpCDDVDW SH-S223C Adapter: 3 ID: 0

Режим чтения : Достоверность
Использование точного потока : Да
Отключение кэша аудио : Да
Использование указателей C2 : Нет

Коррекция смещения при чтении : 697
Способность читать области Lead-in и Lead-out : Нет
Заполнение пропущенных сэмплов тишиной : Да
Удаление блоков с тишиной в начале и конце : Нет
При вычислениях CRC использовались нулевые сэмплы : Да
Интерфейс : Встроенный Win32-интерфейс для Win NT/2000

Выходной формат : Пользовательский кодировщик
Выбранный битрейт : 896 kBit/s
Качество : Высокий
Добавление ID3-тега : Нет
Утилита сжатия : C:\Program Files (x86)\Exact Audio Copy\FLAC\FLAC.EXE
Дополнительные параметры : -6 -V -T “ARTIST=%artist%” -T “TITLE=%title%” -T “ALBUM=%albumtitle%” -T “DATE=%year%” -T “TRACKNUMBER=%tracknr%” -T “GENRE=%genre%” -T “COMMENT=%comment%” -T “BAND=%albuminterpret%” -T “ALBUMARTIST=%albuminterpret%” -T “COMPOSER=%composer%” %haslyrics%–tag-from-file=LYRICS=”%lyricsfile%”%haslyrics% -T “DISCNUMBER=%cdnumber%” -T “TOTALDISCS=%totalcds%” -T “TOTALTRACKS=%numtracks%” %hascover%–picture=”%coverfile%”%hascover% %source% -o %dest%

TOC извлечённого CD

Трек | Старт | Длительность | Начальный сектор | Конечный сектор
———————————————————————
1 | 0:00.00 | 4:35.65 | 0 | 20689
2 | 4:35.65 | 5:46.62 | 20690 | 46701
3 | 10:22.52 | 4:09.30 | 46702 | 65406
4 | 14:32.07 | 3:22.38 | 65407 | 80594
5 | 17:54.45 | 5:16.60 | 80595 | 104354
6 | 23:11.30 | 3:38.35 | 104355 | 120739
7 | 26:49.65 | 3:58.40 | 120740 | 138629
8 | 30:48.30 | 3:50.32 | 138630 | 155911
9 | 34:38.62 | 6:57.30 | 155912 | 187216

Характеристики диапазона извлечения и сообщения об ошибках

Выбранный диапазон

Имя файла C:\dymd\Dio – The Last In Line (Japan UICY-3728).wav

Пиковый уровень 100.0 %
Скорость извлечения 3.1 X
Качество диапазона 100.0 %
CRC теста 99AF8F94
CRC копии 99AF8F94
Копирование… OK

Ошибок не произошло

AccurateRip: сводка

Трек 1 : извлечено точно (доверие 2) [92B3A3F2] (AR v2)
Трек 2 : извлечено точно (доверие 2) [EF7C4870] (AR v2)
Трек 3 : извлечено точно (доверие 2) [9CC7B741] (AR v2)
Трек 4 : извлечено точно (доверие 2) [C6A551F7] (AR v2)
Трек 5 : извлечено точно (доверие 2) [529CFC48] (AR v2)
Трек 6 : извлечено точно (доверие 2) [EA5301B0] (AR v2)
Трек 7 : извлечено точно (доверие 2) [81943CEA] (AR v2)
Трек 8 : извлечено точно (доверие 2) [19478E9E] (AR v2)
Трек 9 : извлечено точно (доверие 2) [929A44FF] (AR v2)

Все треки извлечены точно

Конец отчёта

==== Контрольная сумма отчёта A3CC4DD4749758676923B3315F6C6E48106AAD96AE67ED74B9C585A7979C0C7A ====

REM GENRE “Hard Rock”
REM DATE 1984
REM DISCID 7009C009
REM COMMENT “ExactAudioCopy v1.0b3”
CATALOG 4988005317186
PERFORMER “Dio”
TITLE “The Last In Line (Japan UICY-3728)”
FILE “Dio – The Last In Line (Japan UICY-3728).flac” WAVE
TRACK 01 AUDIO
TITLE “We Rock”
PERFORMER “Dio”
INDEX 01 00:00:00
TRACK 02 AUDIO
TITLE “The Last In Line”
PERFORMER “Dio”
INDEX 00 04:34:10
INDEX 01 04:35:65
TRACK 03 AUDIO
TITLE “Breathless”
PERFORMER “Dio”
INDEX 01 10:22:52
TRACK 04 AUDIO
TITLE “I Speed At Night”
PERFORMER “Dio”
INDEX 00 14:30:15
INDEX 01 14:32:07
TRACK 05 AUDIO
TITLE “One Night In The City”
PERFORMER “Dio”
INDEX 00 17:53:72
INDEX 01 17:54:45
TRACK 06 AUDIO
TITLE “Evil Eyes”
PERFORMER “Dio”
INDEX 00 23:11:02
INDEX 01 23:11:30
TRACK 07 AUDIO
TITLE “Mystery”
PERFORMER “Dio”
INDEX 00 26:48:32
INDEX 01 26:49:65
TRACK 08 AUDIO
TITLE “Eat Your Heart Out”
PERFORMER “Dio”
INDEX 00 30:47:20
INDEX 01 30:48:30
TRACK 09 AUDIO
TITLE “Egypt (The Chains Are On)”
PERFORMER “Dio”
INDEX 00 34:38:10
INDEX 01 34:38:62


0

Publication author

offline 9 hours

Chaos

3
Comments: 4Publics: 3424Registration: 02-02-2019
Spread the Download

Leave a Reply

Your email address will not be published. Required fields are marked *

Enter the text from the image below
 

This site uses Akismet to reduce spam. Learn how your comment data is processed.