Dio – The Last In Line (Remastered Deluxe Edition)




Artist: Dio
Year: 1984/2012
Genre: Metal
Notes: Discogs
Add. Notes: Remastered Deluxe Edition
Cover incl.: Yes
Encoder: FLAC
Bitrate: ~900 kBit/s (44.1 kHz/16 Bit/s)
Log & Cue incl.: Yes
Size: 894 MB
Password: “slam” (without ” “)


All Downloads/Hosters are compatible

Download 1
KatFile.com
Turbobit.net
FileFactory.com
Rapidgator.net
Download 2
KatFile.com
Turbobit.net
FileFactory.com
Rapidgator.net

Tracklist:

The Last In Line (1984)
1-1 We Rock 4:35
1-2 The Last In Line 5:43
1-3 Breathless 4:06
1-4 I Speed At Night 3:21
1-5 One Night In The City 5:14
1-6 Evil Eyes 3:38
1-7 Mystery 3:57
1-8 Eat Your Heart Out 3:48
1-9 Egypt (The Chains Are On) 6:57

Bonus Tracks
2-1 Eat Your Heart Out (Live B-Side Of Mystery) 5:13
2-2 Don't Talk To Strangers (Live B-Side Of Mystery) 6:05
2-3 Holy Diver (Live B-Side Of We Rock) 4:26
2-4 Rainbow In The Dark (Live B-Side Of We Rock) 4:47
Live At The Pinkpop Festival 1984
2-5 One Night In The City 5:56
2-6 We Rock 5:05
2-7 Holy Diver 4:28
2-8 Stargazer 1:53
2-9 Heaven And Hell 13:03
2-10 Rainbow In The Dark 5:12
2-11 Man On The Silver Mountain 8:14
2-12 Don't Talk To Strangers 5:39

EAC-Log, CUE-Sheed & NFO:

Click to open spoiler
Exact Audio Copy V1.0 beta 3 from 29. August 2011

EAC extraction logfile from 6. February 2013, 6:48

Dio / The Last In Line (2012, Deluxe Expanded Edition, Disc 1)

Used drive : TEAC DV-W28EA Adapter: 0 ID: 1

Read mode : Secure
Utilize accurate stream : Yes
Defeat audio cache : Yes
Make use of C2 pointers : No

Read offset correction : 102
Overread into Lead-In and Lead-Out : No
Fill up missing offset samples with silence : Yes
Delete leading and trailing silent blocks : No
Null samples used in CRC calculations : Yes
Used interface : Native Win32 interface for Win NT & 2000

Used output format : Internal WAV Routines
Sample format : 44.100 Hz; 16 Bit; Stereo

TOC of the extracted CD

Track | Start | Length | Start sector | End sector
———————————————————
1 | 0:00.00 | 4:34.51 | 0 | 20600
2 | 4:34.51 | 5:43.26 | 20601 | 46351
3 | 10:18.02 | 4:06.23 | 46352 | 64824
4 | 14:24.25 | 3:21.24 | 64825 | 79923
5 | 17:45.49 | 5:14.28 | 79924 | 103501
6 | 23:00.02 | 3:37.73 | 103502 | 119849
7 | 26:38.00 | 3:57.07 | 119850 | 137631
8 | 30:35.07 | 3:47.56 | 137632 | 154712
9 | 34:22.63 | 6:57.10 | 154713 | 185997

Range status and errors

Selected range

Filename F:\bigggwest\Dio – The Last In Line (2012, Deluxe Expanded Edition, Disc 1).wav

Peak level 97.0 %
Extraction speed 3.7 X
Range quality 100.0 %
Test CRC A17E16C1
Copy CRC A17E16C1
Copy OK

No errors occurred

AccurateRip summary

Track 1 accurately ripped (confidence 2) [4C593360] (AR v2)
Track 2 accurately ripped (confidence 3) [E34DF1E3] (AR v2)
Track 3 accurately ripped (confidence 3) [CAB4C157] (AR v2)
Track 4 accurately ripped (confidence 3) [2B70DFAC] (AR v2)
Track 5 accurately ripped (confidence 3) [5222B6CB] (AR v2)
Track 6 accurately ripped (confidence 3) [6B6128F0] (AR v2)
Track 7 accurately ripped (confidence 3) [D91BCC95] (AR v2)
Track 8 accurately ripped (confidence 3) [5FB102AD] (AR v2)
Track 9 accurately ripped (confidence 3) [D8ACB6BA] (AR v2)

All tracks accurately ripped

End of status report

==== Log checksum F244B2345AE1DB737C7846AF15B8597A063ABEEB1907A6A96F285682629FD6D4 ====

Exact Audio Copy V1.0 beta 3 from 29. August 2011

EAC extraction logfile from 6. February 2013, 7:47

Dio / The Last In Line (2012, Deluxe Expanded Edition, Disc 2)

Used drive : TEAC DV-W28EA Adapter: 0 ID: 1

Read mode : Secure
Utilize accurate stream : Yes
Defeat audio cache : Yes
Make use of C2 pointers : No

Read offset correction : 102
Overread into Lead-In and Lead-Out : No
Fill up missing offset samples with silence : Yes
Delete leading and trailing silent blocks : No
Null samples used in CRC calculations : Yes
Used interface : Native Win32 interface for Win NT & 2000

Used output format : Internal WAV Routines
Sample format : 44.100 Hz; 16 Bit; Stereo

TOC of the extracted CD

Track | Start | Length | Start sector | End sector
———————————————————
1 | 0:00.00 | 5:13.15 | 0 | 23489
2 | 5:13.15 | 6:04.67 | 23490 | 50856
3 | 11:18.07 | 4:26.09 | 50857 | 70815
4 | 15:44.16 | 4:46.51 | 70816 | 92316
5 | 20:30.67 | 5:55.46 | 92317 | 118987
6 | 26:26.38 | 5:05.27 | 118988 | 141889
7 | 31:31.65 | 4:28.16 | 141890 | 162005
8 | 36:00.06 | 1:53.24 | 162006 | 170504
9 | 37:53.30 | 13:03.14 | 170505 | 229243
10 | 50:56.44 | 5:11.57 | 229244 | 252625
11 | 56:08.26 | 8:14.03 | 252626 | 289678
12 | 64:22.29 | 5:38.56 | 289679 | 315084

Range status and errors

Selected range

Filename F:\bigggwest\Dio – The Last In Line (2012, Deluxe Expanded Edition, Disc 2).wav

Peak level 97.0 %
Extraction speed 2.4 X
Range quality 99.9 %
Test CRC F0B004E0
Copy CRC F0B004E0
Copy OK

No errors occurred

AccurateRip summary

Track 1 accurately ripped (confidence 2) [6A50F038] (AR v2)
Track 2 accurately ripped (confidence 3) [DE8154E1] (AR v2)
Track 3 accurately ripped (confidence 3) [2B227645] (AR v2)
Track 4 accurately ripped (confidence 3) [E984C260] (AR v2)
Track 5 accurately ripped (confidence 3) [936225D5] (AR v2)
Track 6 accurately ripped (confidence 3) [7B39E2AA] (AR v2)
Track 7 accurately ripped (confidence 3) [E087F82B] (AR v2)
Track 8 accurately ripped (confidence 3) [D210665F] (AR v2)
Track 9 accurately ripped (confidence 3) [3537CF7A] (AR v2)
Track 10 accurately ripped (confidence 3) [816A1E03] (AR v2)
Track 11 accurately ripped (confidence 3) [3F58F85E] (AR v2)
Track 12 accurately ripped (confidence 3) [88D0C6CA] (AR v2)

All tracks accurately ripped

End of status report

==== Log checksum A1D74272E05153D051F7337078C15EB852A0FDE3365B44EA0F74AA179E9774E7 ====

REM GENRE “Heavy Metal”
REM DATE 1984
REM DISCID 6F09AF09
REM COMMENT “ExactAudioCopy v1.0b3”
CATALOG 0600753378342
PERFORMER “Dio”
TITLE “The Last In Line (2012, Deluxe Expanded Edition, Disc 1)”
FILE “Dio – The Last In Line (2012, Deluxe Expanded Edition, Disc 1).flac” WAVE
TRACK 01 AUDIO
TITLE “We Rock”
PERFORMER “Dio”
ISRC GE9088490135
INDEX 01 00:00:00
TRACK 02 AUDIO
TITLE “The Last In Line”
PERFORMER “Dio”
ISRC GE9080400101
INDEX 00 04:34:04
INDEX 01 04:34:51
TRACK 03 AUDIO
TITLE “Breathless”
PERFORMER “Dio”
ISRC NGa050590025
INDEX 00 10:17:64
INDEX 01 10:18:02
TRACK 04 AUDIO
TITLE “I Speed At Night”
PERFORMER “Dio”
ISRC GE9080300558
INDEX 00 14:23:36
INDEX 01 14:24:25
TRACK 05 AUDIO
TITLE “One Night In The City”
PERFORMER “Dio”
ISRC NGa050590026
INDEX 00 17:45:13
INDEX 01 17:45:49
TRACK 06 AUDIO
TITLE “Evil Eyes”
PERFORMER “Dio”
ISRC NGa050490180
INDEX 01 23:00:02
TRACK 07 AUDIO
TITLE “Mystery”
PERFORMER “Dio”
ISRC GE9080400100
INDEX 00 26:37:41
INDEX 01 26:38:00
TRACK 08 AUDIO
TITLE “Eat Your Heart Out”
PERFORMER “Dio”
ISRC NGa050590027
INDEX 00 30:34:68
INDEX 01 30:35:07
TRACK 09 AUDIO
TITLE “Egypt (The Chains Are On)”
PERFORMER “Dio”
ISRC NGa050590028
INDEX 01 34:22:63

REM GENRE “Heavy Metal”
REM DATE 1984
REM DISCID AC10690C
REM COMMENT “ExactAudioCopy v1.0b3”
CATALOG 0600753357187
PERFORMER “Dio”
TITLE “The Last In Line (2012, Deluxe Expanded Edition, Disc 2)”
FILE “Dio – The Last In Line (2012, Deluxe Expanded Edition, Disc 2).flac” WAVE
TRACK 01 AUDIO
TITLE “Eat Your Heart Out (Live B-Side of Mystery)”
PERFORMER “Dio”
ISRC GE:M71200355
INDEX 01 00:00:00
TRACK 02 AUDIO
TITLE “Don’t Talk To Strangers (Live B-Side of Mystery)”
PERFORMER “Dio”
ISRC GE:M71200356
INDEX 00 05:11:14
INDEX 01 05:13:15
TRACK 03 AUDIO
TITLE “Holy Diver (Live) ( B-Side of We Rock)”
PERFORMER “Dio”
ISRC GE:M71200357
INDEX 00 11:16:13
INDEX 01 11:18:07
TRACK 04 AUDIO
TITLE “Rainbow In The Dark (Live B-Side of We Rock)”
PERFORMER “Dio”
ISRC GE:M71200358
INDEX 00 15:41:50
INDEX 01 15:44:16
TRACK 05 AUDIO
TITLE “One Night In The City (LIVE AT THE PINKPOP FESTIVAL, GELEEN, 1984)”
PERFORMER “Dio”
ISRC GE:M71200359
INDEX 00 20:27:18
INDEX 01 20:30:67
TRACK 06 AUDIO
TITLE “We Rock (LIVE AT THE PINKPOP FESTIVAL, GELEEN, 1984)”
PERFORMER “Dio”
ISRC GE:M71200360
INDEX 01 26:26:38
TRACK 07 AUDIO
TITLE “Holy Diver (LIVE AT THE PINKPOP FESTIVAL, GELEEN, 1984)”
PERFORMER “Dio”
ISRC GE:M71200361
INDEX 01 31:31:65
TRACK 08 AUDIO
TITLE “Stargazer (LIVE AT THE PINKPOP FESTIVAL, GELEEN, 1984)”
PERFORMER “Dio”
ISRC GE:M71200362
INDEX 01 36:00:06
TRACK 09 AUDIO
TITLE “Heaven And Hell (LIVE AT THE PINKPOP FESTIVAL, GELEEN, 1984)”
PERFORMER “Dio”
ISRC GE:M71200363
INDEX 01 37:53:30
TRACK 10 AUDIO
TITLE “Rainbow In The Dark (LIVE AT THE PINKPOP FESTIVAL, GELEEN, 1984)”
PERFORMER “Dio”
ISRC GE:M71200364
INDEX 01 50:56:44
TRACK 11 AUDIO
TITLE “Man On The Silver Mountain (LIVE AT THE PINKPOP FESTIVAL, GELEEN, 1984)”
PERFORMER “Dio”
ISRC GE:M71200365
INDEX 01 56:08:26
TRACK 12 AUDIO
TITLE “Don’t Talk To Strangers (LIVE AT THE PINKPOP FESTIVAL, GELEEN, 1984)”
PERFORMER “Dio”
ISRC GE:M71200366
INDEX 01 64:22:29


Leave a Reply

Your email address will not be published. Required fields are marked *

Enter the text from the image below
 

This site uses Akismet to reduce spam. Learn how your comment data is processed.