Dio – The Last In Line (Reissue)




[Total: 0    Average: 0/5]

Artist: Dio
Year: 1984/1988
Genre: Metal
Notes: Discogs
Add. Notes: Reissue
Cover incl.: Yes
Encoder: FLAC
Bitrate: ~800 kBit/s (44.1 kHz/16 Bit/s)
Log & Cue incl.: Yes
Size: 272,8 MB
Password: “slam” (without ” “)


All Downloads/Hosters are compatible

Download 1
Share-online.biz
KatFile.com
Rapidgator.net
Download 2
Share-online.biz
KatFile.com
Rapidgator.net

Tracklist:

1 - We Rock - 4:33
2 - The Last In Line - 5:40
3 - Breathless - 4:03
4 - I Speed At Night - 3:22
5 - One Night In The City - 5:14
6 - Evil Eyes - 3:38
7 - Mystery - 3:46
8 - Eat Your Heart Out - 3:49
9 - Egypt (The Chains Are On) - 6:57

EAC-Log, CUE-Sheed & NFO:

Click to open spoiler
Exact Audio Copy V1.0 beta 3 from 29. August 2011

EAC extraction logfile from 7. April 2013, 0:20

DIO / The Last In Line (WB 9 25100-2)

Used drive : BUFFALO Optical Drive Adapter: 2 ID: 0

Read mode : Secure
Utilize accurate stream : Yes
Defeat audio cache : Yes
Make use of C2 pointers : No

Read offset correction : 6
Overread into Lead-In and Lead-Out : No
Fill up missing offset samples with silence : Yes
Delete leading and trailing silent blocks : No
Null samples used in CRC calculations : Yes
Used interface : Native Win32 interface for Win NT & 2000

Used output format : User Defined Encoder
Selected bitrate : 1024 kBit/s
Quality : High
Add ID3 tag : No
Command line compressor : C:\Program Files\Exact Audio Copy\Flac\flac.exe
Additional command line options : -8 -V %source% -o %dest%

TOC of the extracted CD

Track | Start | Length | Start sector | End sector
———————————————————
1 | 0:00.33 | 4:35.50 | 33 | 20707
2 | 4:36.08 | 5:47.12 | 20708 | 46744
3 | 10:23.20 | 4:09.28 | 46745 | 65447
4 | 14:32.48 | 3:22.42 | 65448 | 80639
5 | 17:55.15 | 5:16.25 | 80640 | 104364
6 | 23:11.40 | 3:38.50 | 104365 | 120764
7 | 26:50.15 | 3:58.53 | 120765 | 138667
8 | 30:48.68 | 3:50.55 | 138668 | 155972
9 | 34:39.48 | 6:57.60 | 155973 | 187307

Range status and errors

Selected range

Filename H:\DIO\DIO – The Last In Line (WB 9 25100-2).wav

Peak level 78.2 %
Extraction speed 1.5 X
Range quality 100.0 %
Test CRC BD2AC27B
Copy CRC BD2AC27B
Copy OK

No errors occurred

AccurateRip summary

Track 1 accurately ripped (confidence 4) [05B9A04B] (AR v2)
Track 2 accurately ripped (confidence 4) [FD1EAC48] (AR v2)
Track 3 accurately ripped (confidence 4) [32D7439F] (AR v2)
Track 4 accurately ripped (confidence 4) [76E74092] (AR v2)
Track 5 accurately ripped (confidence 4) [C86805BB] (AR v2)
Track 6 accurately ripped (confidence 4) [A5BAE74E] (AR v2)
Track 7 accurately ripped (confidence 4) [88C26CDF] (AR v2)
Track 8 accurately ripped (confidence 4) [EF404D37] (AR v2)
Track 9 accurately ripped (confidence 3) [5DE346DE] (AR v2)

All tracks accurately ripped

End of status report

==== Log checksum 152CE1237F2AF843892D3FB6EDCED34B4216C57B1C8846DDFC59619599AD29B9 ====

REM GENRE “Heavy Metal”
REM DATE 1984
REM DISCID 7509C109
REM COMMENT “ExactAudioCopy v1.0b3”
PERFORMER “DIO”
TITLE “The Last In Line (WB 9 25100-2)”
FILE “DIO – The Last In Line (WB 9 25100-2).flac” WAVE
TRACK 01 AUDIO
TITLE “We Rock”
PERFORMER “DIO”
INDEX 00 00:00:00
INDEX 01 00:00:33
TRACK 02 AUDIO
TITLE “The Last In Line”
PERFORMER “DIO”
INDEX 00 04:35:00
INDEX 01 04:36:08
TRACK 03 AUDIO
TITLE “Breathless”
PERFORMER “DIO”
INDEX 00 10:22:08
INDEX 01 10:23:20
TRACK 04 AUDIO
TITLE “I Speed At Night”
PERFORMER “DIO”
INDEX 00 14:30:13
INDEX 01 14:32:48
TRACK 05 AUDIO
TITLE “One Night In The City”
PERFORMER “DIO”
INDEX 00 17:54:18
INDEX 01 17:55:15
TRACK 06 AUDIO
TITLE “Evil Eyes”
PERFORMER “DIO”
INDEX 00 23:09:55
INDEX 01 23:11:40
TRACK 07 AUDIO
TITLE “Mystery”
PERFORMER “DIO”
INDEX 00 26:49:33
INDEX 01 26:50:15
TRACK 08 AUDIO
TITLE “Eat Your Heart Out”
PERFORMER “DIO”
INDEX 00 30:47:48
INDEX 01 30:48:68
TRACK 09 AUDIO
TITLE “Egypt (The Chains Are On)”
PERFORMER “DIO”
INDEX 00 34:38:18
INDEX 01 34:39:48


Spread the Download

Leave a Reply

Your email address will not be published. Required fields are marked *

Enter the text from the image below
 

This site uses Akismet to reduce spam. Learn how your comment data is processed.