Dio – The Last In Line (Limited Remastered Edition)




Artist: Dio
Year: 1984/2012
Genre: Metal
Notes: Discogs
Add. Notes: Limited Remastered Edition
Cover incl.: Yes
Encoder: FLAC
Bitrate: ~900 kBit/s (44.1 kHz/16 Bit/s)
Log & Cue incl.: Yes/Yes
Size: 306,4 MB
Password: “slam” (without ” “)


All Downloads/Hosters are compatible

Download 1
KatFile.com
Turbobit.net
FileFactory.com
Rapidgator.net
Download 2
KatFile.com
Turbobit.net
FileFactory.com
Rapidgator.net

Tracklist:

1 We Rock 4:35
2 The Last In Line 5:48
3 Breathless 4:09
4 I Speed At Night 3:26
5 One Night In The City 5:14
6 Evil Eyes 3:38
7 Mystery 3:55
8 Eat Your Heart Out 4:02
9 Egypt (The Chains Are On) 7:02

EAC-Log, CUE-Sheed & NFO:

Click to open spoiler
Exact Audio Copy V1.0 beta 3 from 29. August 2011

EAC extraction logfile from 1. February 2013, 23:43

Dio / The Last In Line (AFZ 146)

Used drive : PLEXTOR DVDR PX-612U Adapter: 1 ID: 0

Read mode : Secure
Utilize accurate stream : Yes
Defeat audio cache : Yes
Make use of C2 pointers : No

Read offset correction : 6
Overread into Lead-In and Lead-Out : No
Fill up missing offset samples with silence : Yes
Delete leading and trailing silent blocks : No
Null samples used in CRC calculations : Yes
Used interface : Installed external ASPI interface

Used output format : User Defined Encoder
Selected bitrate : 1024 kBit/s
Quality : High
Add ID3 tag : No
Command line compressor : C:\Program Files (x86)\Exact Audio Copy 1.0b3\Flac\flac.exe
Additional command line options : -V -8 -T “Date=%year%” -T “Genre=%genre%” %source%

TOC of the extracted CD

Track | Start | Length | Start sector | End sector
———————————————————
1 | 0:00.00 | 4:35.60 | 0 | 20684
2 | 4:35.60 | 5:46.45 | 20685 | 46679
3 | 10:22.30 | 4:08.74 | 46680 | 65353
4 | 14:31.29 | 3:22.24 | 65354 | 80527
5 | 17:53.53 | 5:23.65 | 80528 | 104817
6 | 23:17.43 | 3:38.42 | 104818 | 121209
7 | 26:56.10 | 3:58.38 | 121210 | 139097
8 | 30:54.48 | 3:48.52 | 139098 | 156249
9 | 34:43.25 | 6:59.41 | 156250 | 187715

Range status and errors

Selected range

Filename D:\Ripped By liveevil\Dio – The Last In Line (AFZ 146).wav

Peak level 95.9 %
Extraction speed 1.7 X
Range quality 100.0 %
Test CRC 13E8EF60
Copy CRC 13E8EF60
Copy OK

No errors occurred

AccurateRip summary

Track 1 accurately ripped (confidence 2) [BDD00DD5] (AR v1)
Track 2 accurately ripped (confidence 1) [F8FAF548] (AR v1)
Track 3 accurately ripped (confidence 1) [BFBE19A3] (AR v1)
Track 4 accurately ripped (confidence 1) [463F3EFC] (AR v1)
Track 5 accurately ripped (confidence 1) [5C0527A5] (AR v1)
Track 6 accurately ripped (confidence 1) [DE0DF725] (AR v1)
Track 7 accurately ripped (confidence 1) [D19B65DC] (AR v1)
Track 8 accurately ripped (confidence 1) [514721B1] (AR v1)
Track 9 accurately ripped (confidence 1) [D3B5D2CC] (AR v1)

All tracks accurately ripped

End of status report

==== Log checksum F94E1548CA8B5EAB4CB7FE5FE00039F9245560FE218A3235791AA565FE1D2DD5 ====

REM GENRE “Heavy Metal”
REM DATE 1984
REM DISCID 8609C609
REM COMMENT “ExactAudioCopy v1.0b3”
PERFORMER “Dio”
TITLE “The Last In Line (AFZ 146)”
FILE “Dio – The Last In Line (AFZ 146).flac” WAVE
TRACK 01 AUDIO
TITLE “We Rock”
PERFORMER “Dio”
INDEX 01 00:00:00
TRACK 02 AUDIO
TITLE “The Last In Line”
PERFORMER “Dio”
INDEX 01 04:35:60
TRACK 03 AUDIO
TITLE “Breathless”
PERFORMER “Dio”
INDEX 01 10:22:30
TRACK 04 AUDIO
TITLE “I Speed At Night”
PERFORMER “Dio”
INDEX 01 14:31:29
TRACK 05 AUDIO
TITLE “One Night In The City”
PERFORMER “Dio”
INDEX 01 17:53:53
TRACK 06 AUDIO
TITLE “Evil Eyes”
PERFORMER “Dio”
INDEX 01 23:17:43
TRACK 07 AUDIO
TITLE “Mystery”
PERFORMER “Dio”
INDEX 01 26:56:10
TRACK 08 AUDIO
TITLE “Eat Your Heart Out”
PERFORMER “Dio”
INDEX 01 30:54:48
TRACK 09 AUDIO
TITLE “Egypt (The Chains Are On)”
PERFORMER “Dio”
INDEX 01 34:43:25


Leave a Reply

Your email address will not be published. Required fields are marked *

Enter the text from the image below
 

This site uses Akismet to reduce spam. Learn how your comment data is processed.