Dio – The Last In Line (Japanese Edition)




Artist: Dio
Year: 1984/1991
Genre: Metal
Notes: Discogs
Add. Notes: Japanese Edition
Cover incl.: Yes
Encoder: FLAC
Bitrate: ~800 kBit/s (44.1 kHz/16 Bit/s)
Log & Cue incl.: Yes
Size: 273,1 MB
Password: “slam” (without ” “)


All Downloads/Hosters are compatible

Download 1
KatFile.com
Turbobit.net
FileFactory.com
Rapidgator.net
Download 2
KatFile.com
Turbobit.net
FileFactory.com
Rapidgator.net

Tracklist:

1 We Rock 
2 The Last In Line 
3 Breathless 
4 I Speed At Night 
5 One Night In The City 
6 Evil Eyes 
7 Mystery 
8 Eat Your Heart Out 
9 Egypt (The Chains Are On)

EAC-Log, CUE-Sheed & NFO:

Click to open spoiler
Exact Audio Copy V0.99 prebeta 4 from 23. January 2008

EAC extraction logfile from 25. February 2011, 1:09

Dio / The Last In Line (PHCR-2084)

Used drive : PLEXTOR DVDR PX-760A Adapter: 0 ID: 0

Read mode : Secure
Utilize accurate stream : Yes
Defeat audio cache : Yes
Make use of C2 pointers : No

Read offset correction : 30
Overread into Lead-In and Lead-Out : No
Fill up missing offset samples with silence : Yes
Delete leading and trailing silent blocks : No
Null samples used in CRC calculations : Yes
Used interface : Installed external ASPI interface

Used output format : Internal WAV Routines
Sample format : 44.100 Hz; 16 Bit; Stereo

TOC of the extracted CD

Track | Start | Length | Start sector | End sector
———————————————————
1 | 0:00.37 | 4:35.45 | 37 | 20706
2 | 4:36.07 | 5:42.58 | 20707 | 46414
3 | 10:18.65 | 4:02.00 | 46415 | 64564
4 | 14:20.65 | 3:22.55 | 64565 | 79769
5 | 17:43.45 | 5:15.37 | 79770 | 103431
6 | 22:59.07 | 3:38.60 | 103432 | 119841
7 | 26:37.67 | 3:46.45 | 119842 | 136836
8 | 30:24.37 | 3:50.18 | 136837 | 154104
9 | 34:14.55 | 6:57.07 | 154105 | 185386

Range status and errors

Selected range

Filename D:\bki71\Dio – The Last In Line (PHCR-2084).wav

Peak level 97.8 %
Range quality 100.0 %
Test CRC AC99A0A4
Copy CRC AC99A0A4
Copy OK

No errors occurred

AccurateRip summary

Track 1 accurately ripped (confidence 3) [F20854E4]
Track 2 accurately ripped (confidence 3) [75F68736]
Track 3 accurately ripped (confidence 3) [9BE69811]
Track 4 accurately ripped (confidence 3) [6AA77C38]
Track 5 accurately ripped (confidence 3) [2DA5F9E9]
Track 6 accurately ripped (confidence 3) [90ADCAFC]
Track 7 accurately ripped (confidence 3) [340ABDA7]
Track 8 accurately ripped (confidence 2) [F8EE76C6]
Track 9 accurately ripped (confidence 3) [2707563F]

All tracks accurately ripped

End of status report

REM GENRE “Heavy Metal”
REM DATE 1984
REM DISCID 7A09A709
REM COMMENT “ExactAudioCopy v0.99pb4”
PERFORMER “Dio”
TITLE “The Last In Line (PHCR-2084)”
FILE “Dio – The Last In Line (PHCR-2084).flac” WAVE
TRACK 01 AUDIO
TITLE “We Rock”
PERFORMER “Dio”
INDEX 00 00:00:00
INDEX 01 00:00:37
TRACK 02 AUDIO
TITLE “The Last In Line”
PERFORMER “Dio”
INDEX 00 04:35:04
INDEX 01 04:36:07
TRACK 03 AUDIO
TITLE “Breathless”
PERFORMER “Dio”
INDEX 00 10:17:51
INDEX 01 10:18:65
TRACK 04 AUDIO
TITLE “I Speed At Night”
PERFORMER “Dio”
INDEX 00 14:20:63
INDEX 01 14:20:65
TRACK 05 AUDIO
TITLE “One Night In The City”
PERFORMER “Dio”
INDEX 00 17:43:43
INDEX 01 17:43:45
TRACK 06 AUDIO
TITLE “Evil Eyes”
PERFORMER “Dio”
INDEX 00 22:58:71
INDEX 01 22:59:07
TRACK 07 AUDIO
TITLE “Mystery”
PERFORMER “Dio”
INDEX 00 26:37:41
INDEX 01 26:37:67
TRACK 08 AUDIO
TITLE “Eat Your Heart Out”
PERFORMER “Dio”
INDEX 00 30:24:36
INDEX 01 30:24:37
TRACK 09 AUDIO
TITLE “Egypt (The Chains Are On)”
PERFORMER “Dio”
INDEX 00 34:14:53
INDEX 01 34:14:55


Leave a Reply

Your email address will not be published. Required fields are marked *

This site uses Akismet to reduce spam. Learn how your comment data is processed.