Dio – The Last In Line




Artist: Dio
Year: 1984/1985
Genre: Metal
Notes: Discogs
Add. Notes:
Cover incl.: Yes
Encoder: FLAC
Bitrate: ~800 kBit/s (44.1 kHz/16 Bit/s)
Log & Cue incl.: Yes
Size: 295,91 MB
Password: “slam” (without ” “)


All Downloads/Hosters are compatible

Download 1
NitroFlare.com
KatFile.com
Turbobit.net
Rapidgator.net
UploadRar.com
Download 2
NitroFlare.com
KatFile.com
Turbobit.net
Rapidgator.net
UploadRar.com

Tracklist:

1 - We Rock - 4:33
2 - The Last In Line - 5:40
3 - Breathless - 4:03
4 - I Speed At Night - 3:22
5 - One Night In The City - 5:14
6 - Evil Eyes - 3:38
7 - Mystery - 3:46
8 - Eat Your Heart Out - 3:49
9 - Egypt (The Chains Are On) - 6:57

EAC-Log, CUE-Sheed & NFO:

Click to open spoiler
Exact Audio Copy V1.0 beta 3 from 29. August 2011

EAC extraction logfile from 19. February 2013, 21:33

DIO / The Last In Line (Vertigo 822 366-2)

Used drive : HL-DT-STDVDRAM GSA-T10N Adapter: 1 ID: 0

Read mode : Secure
Utilize accurate stream : Yes
Defeat audio cache : Yes
Make use of C2 pointers : No

Read offset correction : 667
Overread into Lead-In and Lead-Out : No
Fill up missing offset samples with silence : Yes
Delete leading and trailing silent blocks : No
Null samples used in CRC calculations : Yes
Used interface : Native Win32 interface for Win NT & 2000

Used output format : User Defined Encoder
Selected bitrate : 1024 kBit/s
Quality : High
Add ID3 tag : No
Command line compressor : C:\Program Files\Exact Audio Copy\Flac\flac.exe
Additional command line options : -8 -V %source% -o %dest%

TOC of the extracted CD

Track | Start | Length | Start sector | End sector
———————————————————
1 | 0:00.32 | 4:36.00 | 32 | 20731
2 | 4:36.32 | 5:40.28 | 20732 | 46259
3 | 10:16.60 | 4:04.35 | 46260 | 64594
4 | 14:21.20 | 3:22.50 | 64595 | 79794
5 | 17:43.70 | 5:15.37 | 79795 | 103456
6 | 22:59.32 | 3:38.63 | 103457 | 119869
7 | 26:38.20 | 3:46.32 | 119870 | 136851
8 | 30:24.52 | 3:49.03 | 136852 | 154029
9 | 34:13.55 | 6:57.17 | 154030 | 185321

Range status and errors

Selected range

Filename H:\DIO\DIO – The Last In Line (Vertigo 822 366-2).wav

Peak level 97.8 %
Extraction speed 3.9 X
Range quality 100.0 %
Test CRC C77FB100
Copy CRC C77FB100
Copy OK

No errors occurred

AccurateRip summary

Track 1 accurately ripped (confidence 9) [29DC40E4] (AR v1)
Track 2 accurately ripped (confidence 9) [8E036C6B] (AR v1)
Track 3 accurately ripped (confidence 9) [5499621C] (AR v1)
Track 4 accurately ripped (confidence 9) [50095180] (AR v1)
Track 5 accurately ripped (confidence 9) [717E27F9] (AR v1)
Track 6 accurately ripped (confidence 9) [C0E4CE24] (AR v1)
Track 7 accurately ripped (confidence 9) [A27AEF0B] (AR v1)
Track 8 accurately ripped (confidence 9) [AA2ECFFA] (AR v1)
Track 9 accurately ripped (confidence 9) [CD417CBB] (AR v1)

All tracks accurately ripped

End of status report

==== Log checksum 7B95B59A8A91C3715AB33ECBCB73E6B72A5DE451D8E97CBDE100AAF4B11D104C ====

REM GENRE “Heavy Metal”
REM DATE 1984
REM DISCID 7009A609
REM COMMENT “ExactAudioCopy v1.0b3”
PERFORMER “DIO”
TITLE “The Last In Line (Vertigo 822 366-2)”
FILE “DIO – The Last In Line (Vertigo 822 366-2).flac” WAVE
TRACK 01 AUDIO
TITLE “We Rock”
PERFORMER “DIO”
INDEX 00 00:00:00
INDEX 01 00:00:32
TRACK 02 AUDIO
TITLE “The Last In Line”
PERFORMER “DIO”
INDEX 00 04:34:22
INDEX 01 04:36:32
TRACK 03 AUDIO
TITLE “Breathless”
PERFORMER “DIO”
INDEX 00 10:16:59
INDEX 01 10:16:60
TRACK 04 AUDIO
TITLE “I Speed At Night”
PERFORMER “DIO”
INDEX 00 14:20:07
INDEX 01 14:21:20
TRACK 05 AUDIO
TITLE “One Night In The City”
PERFORMER “DIO”
INDEX 00 17:43:37
INDEX 01 17:43:70
TRACK 06 AUDIO
TITLE “Evil Eyes”
PERFORMER “DIO”
INDEX 00 22:58:62
INDEX 01 22:59:32
TRACK 07 AUDIO
TITLE “Mystery”
PERFORMER “DIO”
INDEX 00 26:37:57
INDEX 01 26:38:20
TRACK 08 AUDIO
TITLE “Eat Your Heart Out”
PERFORMER “DIO”
INDEX 01 30:24:52
TRACK 09 AUDIO
TITLE “Egypt (The Chains Are On)”
PERFORMER “DIO”
INDEX 00 34:13:54
INDEX 01 34:13:55


Leave a Reply

Your email address will not be published. Required fields are marked *

Enter the text from the image below
 

This site uses Akismet to reduce spam. Learn how your comment data is processed.