Dio – The Collection




Artist: Dio
Year: 2003
Genre: Metal
Notes: Discogs
Add. Notes:
Cover incl.: Yes
Encoder: FLAC
Bitrate: ~1000 kBit/s (44.1 kHz/16 Bit/s)
Log & Cue incl.: Yes
Size: 542,42 MB
Password: “slam” (without ” “)


All Downloads/Hosters are compatible

Download 1
Turbobit.net
NitroFlare.com
KatFile.com
Rapidgator.net
Download 2
Turbobit.net
NitroFlare.com
KatFile.com
Rapidgator.net

Tracklist:

1. Holy Diver 	
2. Don't Talk To Strangers 	
3. Rainbow In The Dark 	
4. Stand Up And Shout (Live) 	
5. Straight Through The Heart (Live) 	
6. We Rock 	
7. The Last In The Line (Live) 	
8. Mystery 	
9. I Speed At Night 	
10. Rock 'N' Roll Children 	
11. Hungry For Heaven 	
12. King Of Rock And Roll 	
13. Sacred Heart (Live) 	
14. Dream Evil 	
15. I Could Have Been A Dreamer 	
16. Wild One 	
17. Jesus, Mary & The Holy Ghost

EAC-Log, CUE-Sheed & NFO:

Click to open spoiler
Exact Audio Copy V1.0 beta 3 from 29. August 2011

EAC extraction logfile from 29. January 2013, 15:13

Dio / The Collection (077 043-2)

Used drive : Optiarc DVD RW AD-5170A Adapter: 0 ID: 0

Read mode : Secure
Utilize accurate stream : Yes
Defeat audio cache : Yes
Make use of C2 pointers : No

Read offset correction : 48
Overread into Lead-In and Lead-Out : No
Fill up missing offset samples with silence : Yes
Delete leading and trailing silent blocks : No
Null samples used in CRC calculations : Yes
Used interface : Native Win32 interface for Win NT & 2000

Used output format : Internal WAV Routines
Sample format : 44.100 Hz; 16 Bit; Stereo

TOC of the extracted CD

Track | Start | Length | Start sector | End sector
———————————————————
1 | 0:00.00 | 5:54.54 | 0 | 26603
2 | 5:54.54 | 4:54.43 | 26604 | 48696
3 | 10:49.22 | 4:15.65 | 48697 | 67886
4 | 15:05.12 | 3:45.09 | 67887 | 84770
5 | 18:50.21 | 4:33.38 | 84771 | 105283
6 | 23:23.59 | 4:36.09 | 105284 | 125992
7 | 27:59.68 | 5:11.69 | 125993 | 149386
8 | 33:11.62 | 3:35.23 | 149387 | 165534
9 | 36:47.10 | 3:25.00 | 165535 | 180909
10 | 40:12.10 | 4:33.04 | 180910 | 201388
11 | 44:45.14 | 4:12.30 | 201389 | 220318
12 | 48:57.44 | 3:35.62 | 220319 | 236505
13 | 52:33.31 | 6:27.72 | 236506 | 265602
14 | 59:01.28 | 4:29.70 | 265603 | 285847
15 | 63:31.23 | 3:39.16 | 285848 | 302288
16 | 67:10.39 | 4:04.23 | 302289 | 320611
17 | 71:14.62 | 4:09.06 | 320612 | 339292

Range status and errors

Selected range

Filename D:\bigggwest\Dio – The Collection (077 043-2).wav

Peak level 100.0 %
Extraction speed 5.8 X
Range quality 100.0 %
Test CRC 51069C20
Copy CRC 51069C20
Copy OK

No errors occurred

AccurateRip summary

Track 1 accurately ripped (confidence 5) [3F016841] (AR v2)
Track 2 accurately ripped (confidence 5) [806D344E] (AR v2)
Track 3 accurately ripped (confidence 5) [72865C19] (AR v2)
Track 4 accurately ripped (confidence 5) [2FBB2721] (AR v2)
Track 5 accurately ripped (confidence 5) [C232630A] (AR v2)
Track 6 accurately ripped (confidence 5) [17ED7F33] (AR v2)
Track 7 accurately ripped (confidence 5) [A0B7E816] (AR v2)
Track 8 accurately ripped (confidence 5) [EF7C2E0A] (AR v2)
Track 9 accurately ripped (confidence 5) [5E8EE443] (AR v2)
Track 10 accurately ripped (confidence 5) [BC502D7B] (AR v2)
Track 11 accurately ripped (confidence 5) [E867ABC7] (AR v2)
Track 12 accurately ripped (confidence 5) [8A01ACC7] (AR v2)
Track 13 accurately ripped (confidence 5) [797E1F86] (AR v2)
Track 14 accurately ripped (confidence 5) [CAF1B128] (AR v2)
Track 15 accurately ripped (confidence 5) [64D0C5BA] (AR v2)
Track 16 accurately ripped (confidence 5) [DF34DA2F] (AR v2)
Track 17 accurately ripped (confidence 5) [4CC53D04] (AR v2)

All tracks accurately ripped

End of status report

==== Log checksum E2BB6DCDE78437AB35FCEB0FB7D0FDCAD87649853196CAA011ABED74BAEC785E ====

REM GENRE “Heavy Metal”
REM DATE 2003
REM DISCID F111AB11
REM COMMENT “ExactAudioCopy v1.0b3”
CATALOG 0044007704325
PERFORMER “Dio”
TITLE “The Collection (077 043-2)”
FILE “Dio – The Collection (077 043-2).flac” WAVE
TRACK 01 AUDIO
TITLE “Holy Diver”
PERFORMER “Dio”
ISRC GBF080300551
INDEX 01 00:00:00
TRACK 02 AUDIO
TITLE “Don’t Talk To Strangers”
PERFORMER “Dio”
ISRC GBF080300552
INDEX 00 05:52:72
INDEX 01 05:54:54
TRACK 03 AUDIO
TITLE “Rainbow In The Dark”
PERFORMER “Dio”
ISRC GBF080300553
INDEX 00 10:47:41
INDEX 01 10:49:22
TRACK 04 AUDIO
TITLE “Stand Up And Shout [Live]”
PERFORMER “Dio”
ISRC GBF080300554
INDEX 00 15:03:30
INDEX 01 15:05:12
TRACK 05 AUDIO
TITLE “Straight Through The Heart [Live]”
PERFORMER “Dio”
ISRC GBF080300555
INDEX 00 18:48:39
INDEX 01 18:50:21
TRACK 06 AUDIO
TITLE “We Rock”
PERFORMER “Dio”
ISRC GBF080300556
INDEX 00 23:22:02
INDEX 01 23:23:59
TRACK 07 AUDIO
TITLE “The Last In Line [Live]”
PERFORMER “Dio”
ISRC GBF080300557
INDEX 00 27:58:11
INDEX 01 27:59:68
TRACK 08 AUDIO
TITLE “Mystery”
PERFORMER “Dio”
ISRC GBF088490136
INDEX 00 33:10:05
INDEX 01 33:11:62
TRACK 09 AUDIO
TITLE “I Speed At Night”
PERFORMER “Dio”
ISRC GBF080300558
INDEX 00 36:45:28
INDEX 01 36:47:10
TRACK 10 AUDIO
TITLE “Rock ‘N’ Roll Children”
PERFORMER “Dio”
ISRC GBF088500684
INDEX 00 40:10:28
INDEX 01 40:12:10
TRACK 11 AUDIO
TITLE “Hungry For Heaven”
PERFORMER “Dio”
ISRC GBF080201445
INDEX 00 44:43:32
INDEX 01 44:45:14
TRACK 12 AUDIO
TITLE “King Of Rock And Roll”
PERFORMER “Dio”
ISRC GBF080300559
INDEX 00 48:55:62
INDEX 01 48:57:44
TRACK 13 AUDIO
TITLE “Sacred Heart [Live]”
PERFORMER “Dio”
ISRC GBF080300560
INDEX 00 52:31:49
INDEX 01 52:33:31
TRACK 14 AUDIO
TITLE “Dream Evil”
PERFORMER “Dio”
ISRC GBF080201369
INDEX 00 58:59:46
INDEX 01 59:01:28
TRACK 15 AUDIO
TITLE “I Could Have Been A Dreamer”
PERFORMER “Dio”
ISRC GBF088790130
INDEX 00 63:29:41
INDEX 01 63:31:23
TRACK 16 AUDIO
TITLE “Wild One”
PERFORMER “Dio”
ISRC GBF080300562
INDEX 00 67:08:57
INDEX 01 67:10:39
TRACK 17 AUDIO
TITLE “Jesus, Mary & The Holy Ghost”
PERFORMER “Dio”
ISRC GBF080300415
INDEX 00 71:13:05
INDEX 01 71:14:62


Leave a Reply

Your email address will not be published. Required fields are marked *

This site uses Akismet to reduce spam. Learn how your comment data is processed.