Dio – Strange Highways (Reissue)




Artist: Dio
Year: 1993/1999
Genre: Metal
Notes: Discogs
Add. Notes: Reissue
Cover incl.: Yes
Encoder: FLAC
Bitrate: ~900 kBit/s (44.1 kHz/16 Bit/s)
Log & Cue incl.: Yes
Size: 394,5 MB
Password: “slam” (without ” “)


All Downloads/Hosters are compatible

Download 1
Turbobit.net
KatFile.com
Rapidgator.net
Usersdrive.com
Download 2
Turbobit.net
KatFile.com
Rapidgator.net
Usersdrive.com

Tracklist:

1 - Jesus Mary & The Holy Ghost - 4:14
2 - Firehead - 4:07
3 - Strange Highways - 6:54
4 - Hollywood Black - 5:10
5 - Evilution - 5:38
6 - Pain - 4:13
7 - One Foot In The Grave - 4:03
8 - Give Her The Gun - 6:00
9 - Blood From A Stone - 4:15
10 - Here's To You - 3:24
11 - Bring Down The Rain - 5:46

EAC-Log, CUE-Sheed & NFO:

Click to open spoiler
Exact Audio Copy V1.0 beta 3 from 29. August 2011

EAC extraction logfile from 2. March 2013, 8:30

Dio / Strange Highways (518486-2)

Used drive : TEAC DV-W28EA Adapter: 0 ID: 1

Read mode : Secure
Utilize accurate stream : Yes
Defeat audio cache : Yes
Make use of C2 pointers : No

Read offset correction : 102
Overread into Lead-In and Lead-Out : No
Fill up missing offset samples with silence : Yes
Delete leading and trailing silent blocks : No
Null samples used in CRC calculations : Yes
Used interface : Native Win32 interface for Win NT & 2000

Used output format : Internal WAV Routines
Sample format : 44.100 Hz; 16 Bit; Stereo

TOC of the extracted CD

Track | Start | Length | Start sector | End sector
———————————————————
1 | 0:00.00 | 4:14.10 | 0 | 19059
2 | 4:14.10 | 4:07.13 | 19060 | 37597
3 | 8:21.23 | 6:54.35 | 37598 | 68682
4 | 15:15.58 | 5:09.22 | 68683 | 91879
5 | 20:25.05 | 5:37.70 | 91880 | 117224
6 | 26:03.00 | 4:13.30 | 117225 | 136229
7 | 30:16.30 | 4:02.70 | 136230 | 154449
8 | 34:19.25 | 6:00.18 | 154450 | 181467
9 | 40:19.43 | 4:14.65 | 181468 | 200582
10 | 44:34.33 | 3:24.35 | 200583 | 215917
11 | 47:58.68 | 5:45.45 | 215918 | 241837

Range status and errors

Selected range

Filename H:\bigggwest\Dio – Strange Highways (518486-2).wav

Peak level 100.0 %
Extraction speed 4.0 X
Range quality 100.0 %
Test CRC 18BEAFB9
Copy CRC 18BEAFB9
Copy OK

No errors occurred

AccurateRip summary

Track 1 accurately ripped (confidence 9) [70C33CAF] (AR v2)
Track 2 accurately ripped (confidence 9) [4617334A] (AR v2)
Track 3 accurately ripped (confidence 9) [019E6995] (AR v2)
Track 4 accurately ripped (confidence 9) [DA067E55] (AR v2)
Track 5 accurately ripped (confidence 9) [196DB128] (AR v2)
Track 6 accurately ripped (confidence 9) [3049E4EC] (AR v2)
Track 7 accurately ripped (confidence 9) [C633E736] (AR v2)
Track 8 accurately ripped (confidence 9) [F03CCE62] (AR v2)
Track 9 accurately ripped (confidence 8) [C4AB621F] (AR v2)
Track 10 accurately ripped (confidence 7) [68360355] (AR v2)
Track 11 accurately ripped (confidence 7) [FBEB14CF] (AR v2)

All tracks accurately ripped

End of status report

==== Log checksum 5C27014F74BBB9254F2A93E80C0159ED1A568900D697870E2BA77A005056A036 ====

REM GENRE “Heavy Metal”
REM DATE 1993
REM DISCID 900C980B
REM COMMENT “ExactAudioCopy v1.0b3”
PERFORMER “Dio”
TITLE “Strange Highways (518486-2)”
FILE “Dio – Strange Highways (518486-2).flac” WAVE
TRACK 01 AUDIO
TITLE “Jesus, Mary & the Holy Ghost”
PERFORMER “Dio”
INDEX 01 00:00:00
TRACK 02 AUDIO
TITLE “Firehead”
PERFORMER “Dio”
INDEX 00 04:13:68
INDEX 01 04:14:10
TRACK 03 AUDIO
TITLE “Strange Highways”
PERFORMER “Dio”
INDEX 00 08:20:48
INDEX 01 08:21:23
TRACK 04 AUDIO
TITLE “Hollywood Black”
PERFORMER “Dio”
INDEX 00 15:15:10
INDEX 01 15:15:58
TRACK 05 AUDIO
TITLE “Evilution”
PERFORMER “Dio”
INDEX 01 20:25:05
TRACK 06 AUDIO
TITLE “Pain”
PERFORMER “Dio”
INDEX 00 26:01:63
INDEX 01 26:03:00
TRACK 07 AUDIO
TITLE “One Foot in the Grave”
PERFORMER “Dio”
INDEX 01 30:16:30
TRACK 08 AUDIO
TITLE “Give Her the Gun”
PERFORMER “Dio”
INDEX 00 34:18:28
INDEX 01 34:19:25
TRACK 09 AUDIO
TITLE “Blood From a Stone”
PERFORMER “Dio”
INDEX 00 40:17:53
INDEX 01 40:19:43
TRACK 10 AUDIO
TITLE “Here’s to You”
PERFORMER “Dio”
INDEX 00 44:33:50
INDEX 01 44:34:33
TRACK 11 AUDIO
TITLE “Bring Down the Rain”
PERFORMER “Dio”
INDEX 01 47:58:68


Leave a Reply

Your email address will not be published. Required fields are marked *

This site uses Akismet to reduce spam. Learn how your comment data is processed.