Dio – Strange Highways (Japanese Edition)




[Total: 0    Average: 0/5]

Artist: Dio
Year: 1993
Genre: Metal
Notes: Discogs
Add. Notes: Japanese Edition
Cover incl.: Yes
Encoder: FLAC
Bitrate: ~1000 kBit/s (44.1 kHz/16 Bit/s)
Log & Cue incl.: Yes
Size: 396,64 MB
Password: “slam” (without ” “)


All Downloads/Hosters are compatible

Download 1
Share-online.biz
KatFile.com
Rapidgator.net
Download 2
Share-online.biz
KatFile.com
Rapidgator.net

Tracklist:

1 - Jesus, Mary & The Holy Ghost - 4:14
2 - Firehead - 4:07
3 - Strange Highways - 6:54
4 - Hollywood Black - 5:09
5 - Evilution - 5:38
6 - Pain - 4:13
7 - One Foot In The Grave - 4:03
8 - Give Her The Gun - 6:00
9 - Blood From A Stone - 4:15
10 - Here's To You - 3:24
11 - Bring Down The Rain - 5:46

EAC-Log, CUE-Sheed & NFO:

Click to open spoiler
Exact Audio Copy V0.99 prebeta 4 from 23. January 2008

EAC extraction logfile from 1. November 2010, 16:00

Dio / Strange Highways (PHCR-1225)

Used drive : PLEXTOR DVDR PX-760A Adapter: 0 ID: 0

Read mode : Secure
Utilize accurate stream : Yes
Defeat audio cache : Yes
Make use of C2 pointers : No

Read offset correction : 30
Overread into Lead-In and Lead-Out : No
Fill up missing offset samples with silence : Yes
Delete leading and trailing silent blocks : No
Null samples used in CRC calculations : Yes
Used interface : Installed external ASPI interface

Used output format : Internal WAV Routines
Sample format : 44.100 Hz; 16 Bit; Stereo

TOC of the extracted CD

Track | Start | Length | Start sector | End sector
———————————————————
1 | 0:00.37 | 4:13.55 | 37 | 19066
2 | 4:14.17 | 4:07.35 | 19067 | 37626
3 | 8:21.52 | 6:54.12 | 37627 | 68688
4 | 15:15.64 | 5:09.48 | 68689 | 91911
5 | 20:25.37 | 5:37.65 | 91912 | 117251
6 | 26:03.27 | 4:13.40 | 117252 | 136266
7 | 30:16.67 | 4:02.62 | 136267 | 154478
8 | 34:19.54 | 6:00.18 | 154479 | 181496
9 | 40:19.72 | 4:14.62 | 181497 | 200608
10 | 44:34.59 | 3:24.38 | 200609 | 215946
11 | 47:59.22 | 5:46.37 | 215947 | 241933

Range status and errors

Selected range

Filename D:\bki71\Dio – Strange Highways (PHCR-1225).wav

Peak level 100.0 %
Range quality 100.0 %
Test CRC 017D102C
Copy CRC 017D102C
Copy OK

No errors occurred

AccurateRip summary

Track 1 accurately ripped (confidence 1) [E2D7A54F]
Track 2 accurately ripped (confidence 1) [D69C2C18]
Track 3 accurately ripped (confidence 1) [BCE5540B]
Track 4 accurately ripped (confidence 1) [7E036E81]
Track 5 accurately ripped (confidence 1) [5CF97631]
Track 6 accurately ripped (confidence 1) [C8243644]
Track 7 accurately ripped (confidence 1) [6D790C1E]
Track 8 accurately ripped (confidence 1) [BC2421E6]
Track 9 accurately ripped (confidence 1) [FF70885B]
Track 10 accurately ripped (confidence 1) [4F8F0B63]
Track 11 accurately ripped (confidence 1) [E61E79FD]

All tracks accurately ripped

End of status report

REM GENRE “Heavy Metal”
REM DATE 1993
REM DISCID 910C990B
REM COMMENT “ExactAudioCopy v0.99pb4”
PERFORMER “Dio”
TITLE “Strange Highways (PHCR-1225)”
FILE “Dio – Strange Highways (PHCR-1225).flac” WAVE
TRACK 01 AUDIO
TITLE “Jesus Mary & The Holy Ghost”
PERFORMER “Dio”
INDEX 00 00:00:00
INDEX 01 00:00:37
TRACK 02 AUDIO
TITLE “Firehead”
PERFORMER “Dio”
INDEX 00 04:14:00
INDEX 01 04:14:17
TRACK 03 AUDIO
TITLE “Strange Highways”
PERFORMER “Dio”
INDEX 00 08:21:25
INDEX 01 08:21:52
TRACK 04 AUDIO
TITLE “Hollywood Black”
PERFORMER “Dio”
INDEX 01 15:15:64
TRACK 05 AUDIO
TITLE “Evilution”
PERFORMER “Dio”
INDEX 01 20:25:37
TRACK 06 AUDIO
TITLE “Pain”
PERFORMER “Dio”
INDEX 00 26:02:40
INDEX 01 26:03:27
TRACK 07 AUDIO
TITLE “One Foot In The Grave”
PERFORMER “Dio”
INDEX 01 30:16:67
TRACK 08 AUDIO
TITLE “Give Her The Gun”
PERFORMER “Dio”
INDEX 00 34:18:45
INDEX 01 34:19:54
TRACK 09 AUDIO
TITLE “Blood From A Stone”
PERFORMER “Dio”
INDEX 00 40:18:55
INDEX 01 40:19:72
TRACK 10 AUDIO
TITLE “Here’s To You”
PERFORMER “Dio”
INDEX 00 44:34:18
INDEX 01 44:34:59
TRACK 11 AUDIO
TITLE “Bring Down The Rain”
PERFORMER “Dio”
INDEX 01 47:59:22


Spread the Download

Leave a Reply

Your email address will not be published. Required fields are marked *

Enter the text from the image below
 

This site uses Akismet to reduce spam. Learn how your comment data is processed.