Dio – Strange Highways (Club Edition)




[Total: 0    Average: 0/5]

Artist: Dio
Year: 1993/1994
Genre: Metal
Notes: Discogs
Add. Notes: Club Edition
Cover incl.: Yes
Encoder: FLAC
Bitrate: ~1000 kBit/s (44.1 kHz/16 Bit/s)
Log & Cue incl.: Yes
Password: “slam” (without ” “)


All Downloads/Hosters are compatible

Download 1
Share-online.biz
KatFile.com
Rapidgator.net
Mexa.sh
Download 2
Share-online.biz
KatFile.com
Rapidgator.net
Mexa.sh

Tracklist:

1 - Jesus, Mary & The Holy Ghost - 4:13
2 - Firehead - 4:06
3 - Strange Highways - 6:54
4 - Hollywood Black - 5:10
5 - Evilution - 5:37
6 - Pain - 4:13
7 - One Foot In The Grave - 4:01
8 - Give Her The Gun - 5:58
9 - Blood From A Stone - 4:14
10 - Here's To You - 3:24
11 - Bring Down The Rain - 5:45

EAC-Log, CUE-Sheed & NFO:

Click to open spoiler
Exact Audio Copy V1.0 beta 3 from 29. August 2011

EAC extraction logfile from 8. January 2013, 19:57

Dio / Strange Highways

Used drive : Optiarc DVD RW AD-7203S Adapter: 1 ID: 1

Read mode : Secure
Utilize accurate stream : Yes
Defeat audio cache : Yes
Make use of C2 pointers : No

Read offset correction : 48
Overread into Lead-In and Lead-Out : No
Fill up missing offset samples with silence : Yes
Delete leading and trailing silent blocks : No
Null samples used in CRC calculations : Yes
Used interface : Native Win32 interface for Win NT & 2000

Used output format : User Defined Encoder
Selected bitrate : 768 kBit/s
Quality : High
Add ID3 tag : No
Command line compressor : C:\Program Files (x86)\Exact Audio Copy\FLAC\FLAC.EXE
Additional command line options : -6 -V -T “ARTIST=%artist%” -T “TITLE=%title%” -T “ALBUM=%albumtitle%” -T “DATE=%year%” -T “TRACKNUMBER=%tracknr%” -T “GENRE=%genre%” -T “COMMENT=%comment%” -T “BAND=%albuminterpret%” -T “ALBUMARTIST=%albuminterpret%” -T “COMPOSER=%composer%” %haslyrics%–tag-from-file=LYRICS=”%lyricsfile%”%haslyrics% -T “DISCNUMBER=%cdnumber%” -T “TOTALDISCS=%totalcds%” -T “TOTALTRACKS=%numtracks%” %hascover%–picture=”%coverfile%”%hascover% %source% -o %dest%

TOC of the extracted CD

Track | Start | Length | Start sector | End sector
———————————————————
1 | 0:00.32 | 4:13.08 | 32 | 19014
2 | 4:13.40 | 4:07.25 | 19015 | 37564
3 | 8:20.65 | 6:54.20 | 37565 | 68634
4 | 15:15.10 | 5:09.47 | 68635 | 91856
5 | 20:24.57 | 5:37.48 | 91857 | 117179
6 | 26:02.30 | 4:13.62 | 117180 | 136216
7 | 30:16.17 | 4:02.40 | 136217 | 154406
8 | 34:18.57 | 6:00.23 | 154407 | 181429
9 | 40:19.05 | 4:15.00 | 181430 | 200554
10 | 44:34.05 | 3:24.40 | 200555 | 215894
11 | 47:58.45 | 5:45.50 | 215895 | 241819

Range status and errors

Selected range

Filename K:\Uploads\Dio – Strange Highways\Dio – Strange Highways.wav

Peak level 100.0 %
Extraction speed 4.0 X
Range quality 99.9 %
Test CRC 5A8F0A1B
Copy CRC 5A8F0A1B
Copy OK

No errors occurred

AccurateRip summary

Track 1 accurately ripped (confidence 8) [29E6AEA3] (AR v2)
Track 2 accurately ripped (confidence 8) [5655DD3E] (AR v2)
Track 3 accurately ripped (confidence 8) [214C5CBE] (AR v2)
Track 4 accurately ripped (confidence 8) [DB1BB908] (AR v2)
Track 5 accurately ripped (confidence 8) [A538A78D] (AR v2)
Track 6 accurately ripped (confidence 8) [14C83612] (AR v2)
Track 7 accurately ripped (confidence 8) [8B74DA8D] (AR v2)
Track 8 accurately ripped (confidence 8) [E6CC6E88] (AR v2)
Track 9 accurately ripped (confidence 8) [C44E17CC] (AR v2)
Track 10 accurately ripped (confidence 8) [E88ED869] (AR v2)
Track 11 accurately ripped (confidence 8) [39F27A94] (AR v2)

All tracks accurately ripped

End of status report

==== Log checksum 909C46AFC342CDFF1B6E218054E33DF40BC181A26DD5866EE76F62860AC3A8F6 ====

REM GENRE Metal
REM DATE 1994
REM DISCID 8B0C980B
REM COMMENT “ExactAudioCopy v1.0b3”
PERFORMER “Dio”
TITLE “Strange Highways”
FILE “Dio – Strange Highways.flac” WAVE
TRACK 01 AUDIO
TITLE “Jesus, Mary & The Holy Ghost”
PERFORMER “Dio”
INDEX 00 00:00:00
INDEX 01 00:00:32
TRACK 02 AUDIO
TITLE “Firehead”
PERFORMER “Dio”
INDEX 00 04:13:37
INDEX 01 04:13:40
TRACK 03 AUDIO
TITLE “Strange Highways”
PERFORMER “Dio”
INDEX 00 08:20:22
INDEX 01 08:20:65
TRACK 04 AUDIO
TITLE “Hollywood Black”
PERFORMER “Dio”
INDEX 00 15:14:52
INDEX 01 15:15:10
TRACK 05 AUDIO
TITLE “Evilution”
PERFORMER “Dio”
INDEX 00 20:24:55
INDEX 01 20:24:57
TRACK 06 AUDIO
TITLE “Pain”
PERFORMER “Dio”
INDEX 00 26:01:40
INDEX 01 26:02:30
TRACK 07 AUDIO
TITLE “One Foot In The Grave”
PERFORMER “Dio”
INDEX 00 30:16:15
INDEX 01 30:16:17
TRACK 08 AUDIO
TITLE “Give Her The Gun”
PERFORMER “Dio”
INDEX 00 34:18:07
INDEX 01 34:18:57
TRACK 09 AUDIO
TITLE “Blood From A Stone”
PERFORMER “Dio”
INDEX 00 40:17:22
INDEX 01 40:19:05
TRACK 10 AUDIO
TITLE “Here’s To You”
PERFORMER “Dio”
INDEX 00 44:33:25
INDEX 01 44:34:05
TRACK 11 AUDIO
TITLE “Bring Down The Rain”
PERFORMER “Dio”
INDEX 00 47:58:42
INDEX 01 47:58:45


Spread the Download

Leave a Reply

Your email address will not be published. Required fields are marked *

Enter the text from the image below
 

This site uses Akismet to reduce spam. Learn how your comment data is processed.