Dio – Stand Up And Shout: The Anthology (Remastered)




No Cover available

Artist: Dio
Year: 2003
Genre: Metal
Notes: Discogs
Add. Notes: Remastered
Watch Songs on: YouTube
Cover incl.: Yes
Encoder: FLAC
Bitrate: ~900 kBit/s (44.1 kHz/16 Bit/s)
Log & Cue incl.: Yes/Yes
Size: 1092,3 MB
Password: “slam” (without ” “)


All Downloads/Hosters are compatible

Download 1
KatFile.com
Turbobit.net
Rapidgator.net
FileFactory.com
Download 2
KatFile.com
Turbobit.net
Rapidgator.net
FileFactory.com

Tracklist:

1-1. Elf - Hoochie Koochie Lady 
1-2. Elf - I'm Coming Back For You 
1-3. Elf - Carolina County Ball 
1-4. Rainbow - Man On The Silver Mountain 
1-5. Rainbow - Starstruck 
1-6. Rainbow - Long Live Rock 'N' Roll 
1-7. Black Sabbath - Neon Knights 
1-8. Black Sabbath - Children Of The Sea 
1-9. Black Sabbath - Heaven And Hell 
1-10. Black Sabbath - Turn Up The Night 
1-11. Black Sabbath - The Sign Of The Southern Cross 
1-12. Black Sabbath - The Mob Rules 
1-13. Black Sabbath - Computer God 
1-14. Black Sabbath - Voodoo (Live, 1982) 
1-15. Dio - Sacred Heart (Live, 1985) 
2-1. Dio - Stand Up And Shout 
2-2. Dio - Holy Diver 
2-3. Dio - Don't Talk To Strangers 
2-4. Dio - Straight Through The Heart 
2-5. Dio - Rainbow In The Dark 
2-6. Dio - We Rock 
2-7. Dio - The Last In Line 
2-8. Dio - Egypt (The Chains Are On) 
2-9. Dio - King Of Rock And Roll 
2-10. Dio - Hungry For Heaven 
2-11. Dio - Dream Evil 
2-12. Dio - All The Fools Sailed Away 
2-13. Dio - Lock Up The Wolves 
2-14. Dio - Strange Highways

EAC-Log, CUE-Sheed & NFO:

Click to open spoiler
Exact Audio Copy V0.99 prebeta 4 from 23. January 2008

Отчёт EAC об извлечении, выполненном 15. января 2009, 20:08

DIO / Stand Up abd Shout(The Anthology)cd1

Дисковод: SlimtypeDVD A DS8A1P Adapter: 0 ID: 0

Режим чтения : Достоверность
Использование точного потока : Да
Отключение кэша аудио : Да
Использование указателей C2 : Нет

Коррекция смещения при чтении : 594
Способность читать области Lead-in и Lead-out : Нет
Заполнение пропущенных сэмплов тишиной : Да
Удаление блоков с тишиной в начале и конце : Нет
При вычислениях CRC использовались нулевые сэмплы : Да
Интерфейс : Встроенный Win32-интерфейс для Win NT/2000

Выходной формат : Внутренние WAV-операции
Формат сэмплов : 44.100 Гц; 16 бит; стерео

TOC извлечённого CD

Трек | Старт | Длительность | Начальный сектор | Конечный сектор
———————————————————————
1 | 0:00.00 | 5:34.17 | 0 | 25066
2 | 5:34.17 | 3:28.30 | 25067 | 40696
3 | 9:02.47 | 4:47.00 | 40697 | 62221
4 | 13:49.47 | 4:39.58 | 62222 | 83204
5 | 18:29.30 | 4:07.62 | 83205 | 101791
6 | 22:37.17 | 4:21.30 | 101792 | 121396
7 | 26:58.47 | 3:53.10 | 121397 | 138881
8 | 30:51.57 | 5:34.48 | 138882 | 163979
9 | 36:26.30 | 6:58.62 | 163980 | 195391
10 | 43:25.17 | 3:42.10 | 195392 | 212051
11 | 47:07.27 | 7:45.45 | 212052 | 246971
12 | 54:52.72 | 3:15.43 | 246972 | 261639
13 | 58:08.40 | 6:12.57 | 261640 | 289596
14 | 64:21.22 | 5:30.38 | 289597 | 314384
15 | 69:51.60 | 6:28.70 | 314385 | 343554

Характеристики диапазона извлечения и сообщения об ошибках

Выбранный диапазон

Имя файла C:\Documents and Settings\User\My Documents\DIO – Stand Up abd Shout(The Anthology)cd1.wav

Пиковый уровень 96.1 %
Качество диапазона 100.0 %
CRC копии 8FE31152
Копирование… OK

Ошибок не произошло

AccurateRip: сводка

Трек 1 точность не определена (достоверность 4) [39BE9423], AccurateRip вернул [D3CA2249]
Трек 2 точность не определена (достоверность 4) [58EF25DE], AccurateRip вернул [412F26D0]
Трек 3 точность не определена (достоверность 4) [5CC0B31B], AccurateRip вернул [287BDB3A]
Трек 4 точность не определена (достоверность 5) [159D4E90], AccurateRip вернул [7A27CBF1]
Трек 5 точность не определена (достоверность 4) [30317981], AccurateRip вернул [CAFD1839]
Трек 6 точность не определена (достоверность 4) [92CA675A], AccurateRip вернул [840E0DB5]
Трек 7 точность не определена (достоверность 4) [3DF402FE], AccurateRip вернул [CA871CF1]
Трек 8 точность не определена (достоверность 4) [A8653D09], AccurateRip вернул [36A01DF4]
Трек 9 точность не определена (достоверность 4) [597E5C4B], AccurateRip вернул [583BDC17]
Трек 10 точность не определена (достоверность 4) [FCDDEADA], AccurateRip вернул [1F25B3E5]
Трек 11 точность не определена (достоверность 4) [C00466B4], AccurateRip вернул [9AA553E0]
Трек 12 точность не определена (достоверность 4) [4CCFCBF9], AccurateRip вернул [55BD8DDF]
Трек 13 точность не определена (достоверность 4) [60BD5939], AccurateRip вернул [ECE954D7]
Трек 14 точность не определена (достоверность 4) [2348E463], AccurateRip вернул [B4D58DAD]
Трек 15 точность не определена (достоверность 4) [FE7CBAC1], AccurateRip вернул [0757538F]

Ни один трек не прошёл проверки на точность
В вашей базе может быть иной вариант штамповки диска

Конец отчёта

Exact Audio Copy V0.99 prebeta 4 from 23. January 2008

Отчёт EAC об извлечении, выполненном 15. января 2009, 22:12

Dio / StandUp and Shout(The Anthology)cd2

Дисковод: SlimtypeDVD A DS8A1P Adapter: 0 ID: 0

Режим чтения : Достоверность
Использование точного потока : Да
Отключение кэша аудио : Да
Использование указателей C2 : Нет

Коррекция смещения при чтении : 594
Способность читать области Lead-in и Lead-out : Нет
Заполнение пропущенных сэмплов тишиной : Да
Удаление блоков с тишиной в начале и конце : Нет
При вычислениях CRC использовались нулевые сэмплы : Да
Интерфейс : Встроенный Win32-интерфейс для Win NT/2000

Выходной формат : Внутренние WAV-операции
Формат сэмплов : 44.100 Гц; 16 бит; стерео

TOC извлечённого CD

Трек | Старт | Длительность | Начальный сектор | Конечный сектор
———————————————————————
1 | 0:00.00 | 3:18.60 | 0 | 14909
2 | 3:18.60 | 5:51.07 | 14910 | 41241
3 | 9:09.67 | 4:55.30 | 41242 | 63396
4 | 14:05.22 | 4:34.20 | 63397 | 83966
5 | 18:39.42 | 4:16.10 | 83967 | 103176
6 | 22:55.52 | 4:35.53 | 103177 | 123854
7 | 27:31.30 | 5:45.67 | 123855 | 149796
8 | 33:17.22 | 7:01.73 | 149797 | 181444
9 | 40:19.20 | 3:51.32 | 181445 | 198801
10 | 44:10.52 | 4:12.43 | 198802 | 217744
11 | 48:23.20 | 4:24.40 | 217745 | 237584
12 | 52:47.60 | 7:13.07 | 237585 | 270066
13 | 60:00.67 | 8:33.40 | 270067 | 308581
14 | 68:34.32 | 6:52.53 | 308582 | 339534

Характеристики диапазона извлечения и сообщения об ошибках

Выбранный диапазон

Имя файла C:\Documents and Settings\User\My Documents\Dio – StandUp and Shout(The Anthology)cd2.wav

Пиковый уровень 97.7 %
Качество диапазона 100.0 %
CRC копии 207B6186
Копирование… OK

Ошибок не произошло

AccurateRip: сводка

Трек 1 точность не определена (достоверность 4) [C0E16579], AccurateRip вернул [A53CA779]
Трек 2 точность не определена (достоверность 5) [E819EEBC], AccurateRip вернул [01BCF5FC]
Трек 3 точность не определена (достоверность 4) [9F3A92DD], AccurateRip вернул [2C811A4A]
Трек 4 точность не определена (достоверность 5) [B06502B6], AccurateRip вернул [B46A031D]
Трек 5 точность не определена (достоверность 5) [01DDEC69], AccurateRip вернул [141A04A9]
Трек 6 точность не определена (достоверность 4) [D2E7F10A], AccurateRip вернул [C3E71D8A]
Трек 7 точность не определена (достоверность 4) [076C84B4], AccurateRip вернул [1509B9F4]
Трек 8 точность не определена (достоверность 4) [B71520B2], AccurateRip вернул [7E442132]
Трек 9 точность не определена (достоверность 4) [91A7CEB0], AccurateRip вернул [63223870]
Трек 10 точность не определена (достоверность 4) [44D08EBB], AccurateRip вернул [2A0535FB]
Трек 11 точность не определена (достоверность 4) [1EBE0C8B], AccurateRip вернул [E23A398B]
Трек 12 точность не определена (достоверность 4) [0257D404], AccurateRip вернул [8E3AC644]
Трек 13 точность не определена (достоверность 4) [F464F90B], AccurateRip вернул [FB7AEE0B]
Трек 14 точность не определена (достоверность 4) [F588F404], AccurateRip вернул [97252084]

Ни один трек не прошёл проверки на точность
В вашей базе может быть иной вариант штамповки диска

Конец отчёта

REM GENRE “Heavy Metal”
REM DATE 2003
REM DISCID D511E40F
REM COMMENT “ExactAudioCopy v0.99pb4”
PERFORMER “DIO”
TITLE “Stand Up abd Shout(The Anthology)cd1”
FILE “DIO – Stand Up abd Shout(The Anthology)cd1.wav” WAVE
TRACK 01 AUDIO
TITLE “Hoochie Koochie Lady”
PERFORMER “DIO”
INDEX 01 00:00:00
TRACK 02 AUDIO
TITLE “I`m Coming Back For You”
PERFORMER “DIO”
INDEX 01 05:34:17
TRACK 03 AUDIO
TITLE “Carolina County Ball”
PERFORMER “DIO”
INDEX 01 09:02:47
TRACK 04 AUDIO
TITLE “Man On The Silver Mountain”
PERFORMER “DIO”
INDEX 01 13:49:47
TRACK 05 AUDIO
TITLE “Startruck”
PERFORMER “DIO”
INDEX 01 18:29:30
TRACK 06 AUDIO
TITLE “Long Live Rock`n`Roll”
PERFORMER “DIO”
INDEX 00 22:35:45
INDEX 01 22:37:17
TRACK 07 AUDIO
TITLE “Neon Knights”
PERFORMER “DIO”
INDEX 00 26:57:45
INDEX 01 26:58:47
TRACK 08 AUDIO
TITLE “Children Of The Sea”
PERFORMER “DIO”
INDEX 00 30:50:45
INDEX 01 30:51:57
TRACK 09 AUDIO
TITLE “Heaven And Hell”
PERFORMER “DIO”
INDEX 00 36:24:62
INDEX 01 36:26:30
TRACK 10 AUDIO
TITLE “TUrn Up The Night”
PERFORMER “DIO”
INDEX 01 43:25:17
TRACK 11 AUDIO
TITLE “The Sigh Of The Southern Cross”
PERFORMER “DIO”
INDEX 00 47:06:22
INDEX 01 47:07:27
TRACK 12 AUDIO
TITLE “The Mob Rules”
PERFORMER “DIO”
INDEX 00 54:51:72
INDEX 01 54:52:72
TRACK 13 AUDIO
TITLE “Computer God”
PERFORMER “DIO”
INDEX 01 58:08:40
TRACK 14 AUDIO
TITLE “Voodoo(live)”
PERFORMER “DIO”
INDEX 01 64:21:22
TRACK 15 AUDIO
TITLE “Sacred Heart(live)”
PERFORMER “DIO”
INDEX 01 69:51:60

REM GENRE “Heavy Metal”
REM DATE 2003
REM DISCID B611AF0E
REM COMMENT “ExactAudioCopy v0.99pb4”
PERFORMER “Dio”
TITLE “StandUp and Shout(The Anthology)cd2”
FILE “Dio – StandUp and Shout(The Anthology)cd2.wav” WAVE
TRACK 01 AUDIO
TITLE “Stand Up and Shout”
PERFORMER “Dio”
INDEX 01 00:00:00
TRACK 02 AUDIO
TITLE “Holy Driver”
PERFORMER “Dio”
INDEX 01 03:18:60
TRACK 03 AUDIO
TITLE “Don`t Talk to Strangers”
PERFORMER “Dio”
INDEX 01 09:09:67
TRACK 04 AUDIO
TITLE “Straight Through the Heart”
PERFORMER “Dio”
INDEX 01 14:05:22
TRACK 05 AUDIO
TITLE “Rainbow in the Dark”
PERFORMER “Dio”
INDEX 01 18:39:42
TRACK 06 AUDIO
TITLE “We Rock”
PERFORMER “Dio”
INDEX 01 22:55:52
TRACK 07 AUDIO
TITLE “The Last in Line”
PERFORMER “Dio”
INDEX 00 27:29:35
INDEX 01 27:31:30
TRACK 08 AUDIO
TITLE “Egypt(The Chains Are On)”
PERFORMER “Dio”
INDEX 01 33:17:22
TRACK 09 AUDIO
TITLE “King Of Rock and Roll”
PERFORMER “Dio”
INDEX 00 40:18:15
INDEX 01 40:19:20
TRACK 10 AUDIO
TITLE “Hungry for Heaven”
PERFORMER “Dio”
INDEX 01 44:10:52
TRACK 11 AUDIO
TITLE “Dream Evil”
PERFORMER “Dio”
INDEX 01 48:23:20
TRACK 12 AUDIO
TITLE “All the Fools Sailed Away”
PERFORMER “Dio”
INDEX 01 52:47:60
TRACK 13 AUDIO
TITLE “Lock Up the Wolves”
PERFORMER “Dio”
INDEX 01 60:00:67
TRACK 14 AUDIO
TITLE “Strange Highways”
PERFORMER “Dio”
INDEX 01 68:34:32


0

Publication author

offline 8 hours

Chaos

3
Comments: 4Publics: 3424Registration: 02-02-2019
Spread the Download

Leave a Reply

Your email address will not be published. Required fields are marked *

Enter the text from the image below
 

This site uses Akismet to reduce spam. Learn how your comment data is processed.