Dio – Sacred Heart




Artist: Dio
Year: 1985
Genre: Rock
Notes: Discogs
Add. Notes:
Cover incl.: Yes
Encoder: FLAC
Bitrate: ~900 kBit/s (44.1 kHz/16 Bit/s)
Log & Cue incl.: Yes
Size: 253,27 MB
Password: “slam” (without ” “)


All Downloads/Hosters are compatible

Download 1
Turbobit.net
Rapidgator.net
KatFile.com
UploadRar.com
Download 2
Turbobit.net
Rapidgator.net
KatFile.com
UploadRar.com

Tracklist:

1 - King Of Rock And Roll - 3:42
2 - Sacred Heart - 6:27
3 - Another Lie - 3:49
4 - Rock 'N' Roll Children - 4:32
5 - Hungry For Heaven - 4:10
6 - Like The Beat Of A Heart - 4:20
7 - Just Another Day - 3:20
8 - Fallen Angels - 3:58
9 - Shoot Shoot - 4:18

EAC-Log, CUE-Sheed & NFO:

Click to open spoiler
Exact Audio Copy V0.99 prebeta 5 from 4. May 2009

EAC extraction logfile from 4. March 2013, 11:08

Dio / Sacred Heart (W.Germany Vertigo 824 848-2)

Used drive : PLEXTOR DVDR PX-760A Adapter: 0 ID: 0

Read mode : Secure
Utilize accurate stream : Yes
Defeat audio cache : Yes
Make use of C2 pointers : No

Read offset correction : 30
Overread into Lead-In and Lead-Out : No
Fill up missing offset samples with silence : Yes
Delete leading and trailing silent blocks : No
Null samples used in CRC calculations : Yes
Used interface : Native Win32 interface for Win NT & 2000

Used output format : User Defined Encoder
Selected bitrate : 1024 kBit/s
Quality : High
Add ID3 tag : No
Command line compressor : C:\Program Files (x86)\Exact Audio Copy\Flac\flac.exe
Additional command line options : -8 -V %s

TOC of the extracted CD

Track | Start | Length | Start sector | End sector
———————————————————
1 | 0:00.33 | 3:43.17 | 33 | 16774
2 | 3:43.50 | 6:27.65 | 16775 | 45864
3 | 10:11.40 | 3:49.55 | 45865 | 63094
4 | 14:01.20 | 4:32.48 | 63095 | 83542
5 | 18:33.68 | 4:11.00 | 83543 | 102367
6 | 22:44.68 | 4:20.40 | 102368 | 121907
7 | 27:05.33 | 3:21.00 | 121908 | 136982
8 | 30:26.33 | 3:58.37 | 136983 | 154869
9 | 34:24.70 | 4:16.63 | 154870 | 174132

Range status and errors

Selected range

Filename D:\bigggwest\Dio – Sacred Heart (W.Germany Vertigo 824 848-2).wav

Peak level 99.3 %
Range quality 100.0 %
Test CRC 41189E14
Copy CRC 41189E14
Copy OK

No errors occurred

AccurateRip summary

Track 1 accurately ripped (confidence 26) [6460A7D7]
Track 2 accurately ripped (confidence 25) [5385107A]
Track 3 accurately ripped (confidence 27) [F82F2BCA]
Track 4 accurately ripped (confidence 28) [8E4B2856]
Track 5 accurately ripped (confidence 24) [35D511FE]
Track 6 accurately ripped (confidence 25) [07087B03]
Track 7 accurately ripped (confidence 26) [41DFBB58]
Track 8 accurately ripped (confidence 25) [2917DF14]
Track 9 accurately ripped (confidence 25) [293FE13A]

All tracks accurately ripped

End of status report

REM GENRE Rock
REM DATE 1985
REM DISCID 6D091109
REM COMMENT “ExactAudioCopy v0.99pb5”
PERFORMER “Dio”
TITLE “Sacred Heart (W.Germany Vertigo 824 848-2)”
FILE “Dio – Sacred Heart (W.Germany Vertigo 824 848-2).flac” WAVE
TRACK 01 AUDIO
TITLE “King Of Rock And Roll”
PERFORMER “Dio”
INDEX 00 00:00:00
INDEX 01 00:00:33
TRACK 02 AUDIO
TITLE “Sacred Heart”
PERFORMER “Dio”
INDEX 00 03:41:48
INDEX 01 03:43:50
TRACK 03 AUDIO
TITLE “Another Lie”
PERFORMER “Dio”
INDEX 00 10:09:28
INDEX 01 10:11:40
TRACK 04 AUDIO
TITLE “Rock ‘N’ Roll Children”
PERFORMER “Dio”
INDEX 00 13:59:45
INDEX 01 14:01:20
TRACK 05 AUDIO
TITLE “Hungry For Heaven”
PERFORMER “Dio”
INDEX 00 18:32:18
INDEX 01 18:33:68
TRACK 06 AUDIO
TITLE “Like The Beat Of A Heart”
PERFORMER “Dio”
INDEX 00 22:42:58
INDEX 01 22:44:68
TRACK 07 AUDIO
TITLE “Just Another Day”
PERFORMER “Dio”
INDEX 00 27:04:73
INDEX 01 27:05:33
TRACK 08 AUDIO
TITLE “Fallen Angels”
PERFORMER “Dio”
INDEX 00 30:25:60
INDEX 01 30:26:33
TRACK 09 AUDIO
TITLE “Shoot Shoot”
PERFORMER “Dio”
INDEX 01 34:24:70


Leave a Reply

Your email address will not be published. Required fields are marked *

This site uses Akismet to reduce spam. Learn how your comment data is processed.