Dio – Sacred Heart (Remastered Deluxe Edition)




Artist: Dio
Year: 1985/2012
Genre: Rock
Notes: Discogs
Add. Notes: Remastered Deluxe Edition
Cover incl.: Yes
Encoder: FLAC
Bitrate: ~900 kBit/s (44.1 kHz/16 Bit/s)
Log & Cue incl.: Yes
Size: 713,5 MB
Password: “slam” (without ” “)


All Downloads/Hosters are compatible

Download 1
KatFile.com
Turbobit.net
FileFactory.com
Rapidgator.net
Download 2
KatFile.com
Turbobit.net
FileFactory.com
Rapidgator.net

Tracklist:

Sacred Heart
1-1 King Of Rock And Roll 3:41
1-2 Sacred Heart 6:26
1-3 Another Lie 3:49
1-4 Rock 'N' Roll Children 4:32
1-5 Hungry For Heaven 4:09
1-6 Like The Beat Of A Heart 4:20
1-7 Just Another Day 3:20
1-8 Fallen Angels 3:58
1-9 Shoot Shoot 4:18

Bonus Tracks
2-1 Hide In The Rainbow 3:58
2-2 We Rock 4:49
2-3 Last In Line 5:19
2-4 Like The Beat Of A Heart 5:14
Intermission (Live At The Sports Arena San Diego, CA, 
USA 6th December 1985)
2-5 King Of Rock And Roll 3:42
2-6 Rainbow In The Dark 4:43
2-7 Sacred Heart 6:29
2-8 Time To Burn 4:26
Medley: (9:40)
2-9a Rock 'n' Roll Children 
2-9b Long Live Rock 'N' Roll 
2-9c Man On The Silver Mountain 
2-10 We Rock 4:58

EAC-Log, CUE-Sheed & NFO:

Click to open spoiler
Exact Audio Copy V1.0 beta 3 from 29. August 2011

EAC extraction logfile from 12. February 2013, 7:08

Dio / Sacred Heart (2012, Deluxe Expanded Edition, Disc 1)

Used drive : TEAC DV-W28EA Adapter: 0 ID: 1

Read mode : Secure
Utilize accurate stream : Yes
Defeat audio cache : Yes
Make use of C2 pointers : No

Read offset correction : 102
Overread into Lead-In and Lead-Out : No
Fill up missing offset samples with silence : Yes
Delete leading and trailing silent blocks : No
Null samples used in CRC calculations : Yes
Used interface : Native Win32 interface for Win NT & 2000

Used output format : Internal WAV Routines
Sample format : 44.100 Hz; 16 Bit; Stereo

TOC of the extracted CD

Track | Start | Length | Start sector | End sector
———————————————————
1 | 0:00.00 | 3:41.33 | 0 | 16607
2 | 3:41.33 | 6:26.04 | 16608 | 45561
3 | 10:07.37 | 3:48.54 | 45562 | 62715
4 | 13:56.16 | 4:31.54 | 62716 | 83094
5 | 18:27.70 | 4:09.03 | 83095 | 101772
6 | 22:36.73 | 4:19.38 | 101773 | 121235
7 | 26:56.36 | 3:20.24 | 121236 | 136259
8 | 30:16.60 | 3:58.30 | 136260 | 154139
9 | 34:15.15 | 4:17.57 | 154140 | 173471

Range status and errors

Selected range

Filename F:\bigggwest\Dio – Sacred Heart (2012, Deluxe Expanded Edition, Disc 1).wav

Peak level 97.0 %
Extraction speed 3.6 X
Range quality 100.0 %
Test CRC B1A1CB65
Copy CRC B1A1CB65
Copy OK

No errors occurred

AccurateRip summary

Track 1 accurately ripped (confidence 3) [EF40C3B7] (AR v2)
Track 2 accurately ripped (confidence 3) [D8511DE9] (AR v2)
Track 3 accurately ripped (confidence 3) [A238DC78] (AR v2)
Track 4 accurately ripped (confidence 3) [8BA288F3] (AR v2)
Track 5 accurately ripped (confidence 3) [A175F761] (AR v2)
Track 6 accurately ripped (confidence 3) [1E64EFBD] (AR v2)
Track 7 accurately ripped (confidence 3) [5A61378B] (AR v2)
Track 8 accurately ripped (confidence 3) [083D47FE] (AR v2)
Track 9 accurately ripped (confidence 3) [3341E83C] (AR v2)

All tracks accurately ripped

End of status report

==== Log checksum 0C3B6FC15418F776A6C82D0496D743AFF1D848D13C3AA4D11C2B9B4AAD92E0FB ====

Exact Audio Copy V1.0 beta 3 from 29. August 2011

EAC extraction logfile from 12. February 2013, 8:13

Dio / Sacred Heart (2012, Deluxe Expanded Edition, Disc 2)

Used drive : TEAC DV-W28EA Adapter: 0 ID: 1

Read mode : Secure
Utilize accurate stream : Yes
Defeat audio cache : Yes
Make use of C2 pointers : No

Read offset correction : 102
Overread into Lead-In and Lead-Out : No
Fill up missing offset samples with silence : Yes
Delete leading and trailing silent blocks : No
Null samples used in CRC calculations : Yes
Used interface : Native Win32 interface for Win NT & 2000

Used output format : Internal WAV Routines
Sample format : 44.100 Hz; 16 Bit; Stereo

TOC of the extracted CD

Track | Start | Length | Start sector | End sector
———————————————————
1 | 0:00.00 | 3:57.48 | 0 | 17822
2 | 3:57.48 | 4:49.30 | 17823 | 39527
3 | 8:47.03 | 5:19.23 | 39528 | 63475
4 | 14:06.26 | 5:14.36 | 63476 | 87061
5 | 19:20.62 | 3:41.60 | 87062 | 103696
6 | 23:02.47 | 4:42.42 | 103697 | 124888
7 | 27:45.14 | 6:28.54 | 124889 | 154042
8 | 34:13.68 | 4:25.71 | 154043 | 173988
9 | 38:39.64 | 9:40.01 | 173989 | 217489
10 | 48:19.65 | 4:58.23 | 217490 | 239862

Range status and errors

Selected range

Filename F:\bigggwest\Dio – Sacred Heart (2012, Deluxe Expanded Edition, Disc 2).wav

Peak level 97.0 %
Extraction speed 3.9 X
Range quality 99.9 %
Test CRC 43704098
Copy CRC 43704098
Copy OK

No errors occurred

AccurateRip summary

Track 1 accurately ripped (confidence 3) [7F8703EF] (AR v2)
Track 2 accurately ripped (confidence 3) [CCB99A81] (AR v2)
Track 3 accurately ripped (confidence 3) [D657158E] (AR v2)
Track 4 accurately ripped (confidence 3) [EADC1F19] (AR v2)
Track 5 accurately ripped (confidence 3) [9D251828] (AR v2)
Track 6 accurately ripped (confidence 3) [F54A9EA7] (AR v2)
Track 7 accurately ripped (confidence 3) [1B524947] (AR v2)
Track 8 accurately ripped (confidence 3) [C16964A9] (AR v2)
Track 9 accurately ripped (confidence 3) [D5758A54] (AR v2)
Track 10 accurately ripped (confidence 3) [9CF556F6] (AR v2)

All tracks accurately ripped

End of status report

==== Log checksum 2036C77743B51A62782B54CE80579A5C33C026E48AB3CD47B4185C58F98C769F ====

REM GENRE “Heavy Metal”
REM DATE 1985
REM DISCID 77090809
REM COMMENT “ExactAudioCopy v1.0b3”
CATALOG 0602527767635
PERFORMER “Dio”
TITLE “Sacred Heart (2012, Deluxe Expanded Edition, Disc 1)”
FILE “Dio – Sacred Heart (2012, Deluxe Expanded Edition, Disc 1).flac” WAVE
TRACK 01 AUDIO
TITLE “King Of Rock And Roll”
PERFORMER “Dio”
ISRC GE9080300559
INDEX 01 00:00:00
TRACK 02 AUDIO
TITLE “Sacred Heart”
PERFORMER “Dio”
ISRC GE9080400099
INDEX 00 03:40:35
INDEX 01 03:41:33
TRACK 03 AUDIO
TITLE “Another Lie”
PERFORMER “Dio”
ISRC GE9088590119
INDEX 00 10:06:47
INDEX 01 10:07:37
TRACK 04 AUDIO
TITLE “Rock ‘N’ Roll Children”
PERFORMER “Dio”
ISRC GE9088500684
INDEX 00 13:54:66
INDEX 01 13:56:16
TRACK 05 AUDIO
TITLE “Hungry For Heaven”
PERFORMER “Dio”
ISRC GE9080201445
INDEX 00 18:27:15
INDEX 01 18:27:70
TRACK 06 AUDIO
TITLE “Like The Beat Of A Heart”
PERFORMER “Dio”
ISRC GE9088590120
INDEX 00 22:36:24
INDEX 01 22:36:73
TRACK 07 AUDIO
TITLE “Just Another Day”
PERFORMER “Dio”
ISRC GE9088590117
INDEX 00 26:55:61
INDEX 01 26:56:36
TRACK 08 AUDIO
TITLE “Fallen Angels”
PERFORMER “Dio”
ISRC GE9088590118
INDEX 00 30:15:45
INDEX 01 30:16:60
TRACK 09 AUDIO
TITLE “Shoot Shoot”
PERFORMER “Dio”
ISRC NGa050590037
INDEX 01 34:15:15

REM GENRE “Heavy Metal”
REM DATE 1985
REM DISCID 820C7E0A
REM COMMENT “ExactAudioCopy v1.0b3”
CATALOG 0602527767642
PERFORMER “Dio”
TITLE “Sacred Heart (2012, Deluxe Expanded Edition, Disc 2)”
FILE “Dio – Sacred Heart (2012, Deluxe Expanded Edition, Disc 2).flac” WAVE
TRACK 01 AUDIO
TITLE “Hide In The Rainbow (from The Dio EP)”
PERFORMER “Dio”
ISRC GE:M71104713
INDEX 01 00:00:00
TRACK 02 AUDIO
TITLE “We Rock (Live B-Side of Rock ‘N’ Roll Children)”
PERFORMER “Dio”
ISRC GE:M71104679
INDEX 00 03:56:11
INDEX 01 03:57:48
TRACK 03 AUDIO
TITLE “Last In Line (Live B-Side of Rock ‘N’ Roll Children)”
PERFORMER “Dio”
ISRC GE:M71104680
INDEX 01 08:47:03
TRACK 04 AUDIO
TITLE “Like The Beat Of A Heart (Live B-Side of Hungry For Heaven)”
PERFORMER “Dio”
ISRC GE:M71104681
INDEX 00 14:04:26
INDEX 01 14:06:26
TRACK 05 AUDIO
TITLE “King Of Rock And Roll (INTERMISSION : LIVE AT THE SPORTS ARENA SAN DIEGO, CA,…”
PERFORMER “Dio”
ISRC GE:M71200377
INDEX 00 19:20:28
INDEX 01 19:20:62
TRACK 06 AUDIO
TITLE “Rainbow In The Dark (INTERMISSION : LIVE AT THE SPORTS ARENA SAN DIEGO, CA, U…”
PERFORMER “Dio”
ISRC GE:M71200378
INDEX 01 23:02:47
TRACK 07 AUDIO
TITLE “Sacred Heart (INTERMISSION : LIVE AT THE SPORTS ARENA SAN DIEGO, CA, USA 6th …”
PERFORMER “Dio”
ISRC GE:M71200379
INDEX 01 27:45:14
TRACK 08 AUDIO
TITLE “Time To Burn ”
PERFORMER “Dio”
ISRC GE:M71200380
INDEX 00 34:12:31
INDEX 01 34:13:68
TRACK 09 AUDIO
TITLE “Medley: Rock ‘N’ Roll Children / Long Live Rock ‘N’ Roll / Man On The Silver …”
PERFORMER “Dio”
ISRC GE:M71200381
INDEX 00 38:38:27
INDEX 01 38:39:64
TRACK 10 AUDIO
TITLE “We Rock (INTERMISSION : LIVE AT THE SPORTS ARENA SAN DIEGO, CA, USA 6th DECEM…”
PERFORMER “Dio”
ISRC GE:M71200382
INDEX 01 48:19:65


0

Publication author

offline 7 hours

Chaos

3
Comments: 4Publics: 3424Registration: 02-02-2019
Spread the Download

Leave a Reply

Your email address will not be published. Required fields are marked *

Enter the text from the image below
 

This site uses Akismet to reduce spam. Learn how your comment data is processed.