Dio – Sacred Heart (Japanese Edition)




[Total: 0    Average: 0/5]

Artist: Dio
Year: 1985/1989
Genre: Metal
Notes: Discogs
Add. Notes: Japanese Edition
Cover incl.: Yes
Encoder: FLAC
Bitrate: ~900 kBit/s (44.1 kHz/16 Bit/s)
Log & Cue incl.: Yes
Size: 256 MB
Password: “slam” (without ” “)


All Downloads/Hosters are compatible

Download 1
KatFile.com
Turbobit.net
FileFactory.com
Rapidgator.net
Download 2
KatFile.com
Turbobit.net
FileFactory.com
Rapidgator.net

Tracklist:

1 - King Of Rock And Roll - 3:49
2 - Sacred Heart - 6:27
3 - Another Lie - 3:48
4 - Rock 'N' Roll Children - 4:32
5 - Hungry For Heaven - 4:11
6 - Like The Beat Of A Heart - 4:24
7 - Just Another Day - 3:23
8 - Fallen Angels - 3:57
9 - Shoot Shoot - 4:20

EAC-Log, CUE-Sheed & NFO:

Click to open spoiler
Exact Audio Copy V0.99 prebeta 4 from 23. January 2008

EAC extraction logfile from 1. November 2010, 11:00

Dio / Sacred Heart (PPD-3071)

Used drive : PLEXTOR DVDR PX-760A Adapter: 0 ID: 0

Read mode : Secure
Utilize accurate stream : Yes
Defeat audio cache : Yes
Make use of C2 pointers : No

Read offset correction : 30
Overread into Lead-In and Lead-Out : No
Fill up missing offset samples with silence : Yes
Delete leading and trailing silent blocks : No
Null samples used in CRC calculations : Yes
Used interface : Installed external ASPI interface

Used output format : Internal WAV Routines
Sample format : 44.100 Hz; 16 Bit; Stereo

TOC of the extracted CD

Track | Start | Length | Start sector | End sector
———————————————————
1 | 0:00.37 | 3:43.45 | 37 | 16806
2 | 3:44.07 | 6:27.55 | 16807 | 45886
3 | 10:11.62 | 3:49.63 | 45887 | 63124
4 | 14:01.50 | 4:32.45 | 63125 | 83569
5 | 18:34.20 | 4:11.02 | 83570 | 102396
6 | 22:45.22 | 4:20.43 | 102397 | 121939
7 | 27:05.65 | 3:20.65 | 121940 | 137004
8 | 30:26.55 | 3:58.52 | 137005 | 154906
9 | 34:25.32 | 4:16.50 | 154907 | 174156

Range status and errors

Selected range

Filename D:\bki71\Dio – Sacred Heart (PPD-3071).wav

Peak level 99.3 %
Range quality 100.0 %
Test CRC 2A0266B1
Copy CRC 2A0266B1
Copy OK

No errors occurred

AccurateRip summary

Track 1 accurately ripped (confidence 1) [C69E5E8D]
Track 2 accurately ripped (confidence 1) [AD738AC1]
Track 3 accurately ripped (confidence 1) [C07E068D]
Track 4 accurately ripped (confidence 1) [E77D0570]
Track 5 accurately ripped (confidence 1) [960FE863]
Track 6 accurately ripped (confidence 1) [F5718F61]
Track 7 accurately ripped (confidence 1) [C5BE6B86]
Track 8 accurately ripped (confidence 1) [B30246B5]
Track 9 accurately ripped (confidence 1) [8B8174D4]

All tracks accurately ripped

End of status report

REM GENRE “Heavy Metal”
REM DATE 1985
REM DISCID 71091209
REM COMMENT “ExactAudioCopy v0.99pb4”
PERFORMER “Dio”
TITLE “Sacred Heart (PPD-3071)”
FILE “Dio – Sacred Heart (PPD-3071).flac” WAVE
TRACK 01 AUDIO
TITLE “King Of Rock And Roll”
PERFORMER “Dio”
INDEX 00 00:00:00
INDEX 01 00:00:37
TRACK 02 AUDIO
TITLE “Sacred Heart”
PERFORMER “Dio”
INDEX 00 03:43:02
INDEX 01 03:44:07
TRACK 03 AUDIO
TITLE “Another Lie”
PERFORMER “Dio”
INDEX 00 10:10:06
INDEX 01 10:11:62
TRACK 04 AUDIO
TITLE “Rock ‘N’ Roll Children”
PERFORMER “Dio”
INDEX 00 14:00:50
INDEX 01 14:01:50
TRACK 05 AUDIO
TITLE “Hungry For Heaven”
PERFORMER “Dio”
INDEX 00 18:32:57
INDEX 01 18:34:20
TRACK 06 AUDIO
TITLE “Like The Beat Of A Heart”
PERFORMER “Dio”
INDEX 00 22:43:26
INDEX 01 22:45:22
TRACK 07 AUDIO
TITLE “Just Another Day”
PERFORMER “Dio”
INDEX 00 27:05:08
INDEX 01 27:05:65
TRACK 08 AUDIO
TITLE “Fallen Angels”
PERFORMER “Dio”
INDEX 00 30:26:38
INDEX 01 30:26:55
TRACK 09 AUDIO
TITLE “Shoot Shoot”
PERFORMER “Dio”
INDEX 01 34:25:32


Spread the Download

Leave a Reply

Your email address will not be published. Required fields are marked *

Enter the text from the image below
 

This site uses Akismet to reduce spam. Learn how your comment data is processed.