Dio – Sacred Heart




[Total: 0    Average: 0/5]

Artist: Dio
Year: 1985
Genre: Metal
Notes: Discogs
Add. Notes:
Cover incl.: Yes
Encoder: FLAC
Bitrate: ~800 kBit/s (44.1 kHz/16 Bit/s)
Log & Cue incl.: Yes
Size: 245,07 MB
Password: “slam” (without ” “)


All Downloads/Hosters are compatible

Download 1
Share-online.biz
KatFile.com
Rapidgator.net
Download 2
Share-online.biz
KatFile.com
Rapidgator.net

Tracklist:

1 - King Of Rock And Roll - 3:42
2 - Sacred Heart - 6:27
3 - Another Lie - 3:49
4 - Rock 'N' Roll Children - 4:32
5 - Hungry For Heaven - 4:10
6 - Like The Beat Of A Heart - 4:20
7 - Just Another Day - 3:20
8 - Fallen Angels - 3:58
9 - Shoot Shoot - 4:18

EAC-Log, CUE-Sheed & NFO:

Click to open spoiler
Exact Audio Copy V0.99 prebeta 5 from 4. May 2009

EAC extraction logfile from 26. February 2013, 11:12

Dio / Sacred Heart (WB 9 25292-2, Japan press)

Used drive : PLEXTOR DVDR PX-760A Adapter: 0 ID: 0

Read mode : Secure
Utilize accurate stream : Yes
Defeat audio cache : Yes
Make use of C2 pointers : No

Read offset correction : 30
Overread into Lead-In and Lead-Out : No
Fill up missing offset samples with silence : Yes
Delete leading and trailing silent blocks : No
Null samples used in CRC calculations : Yes
Used interface : Native Win32 interface for Win NT & 2000

Used output format : User Defined Encoder
Selected bitrate : 1024 kBit/s
Quality : High
Add ID3 tag : No
Command line compressor : C:\Program Files (x86)\Exact Audio Copy\Flac\flac.exe
Additional command line options : -8 -V %s

TOC of the extracted CD

Track | Start | Length | Start sector | End sector
———————————————————
1 | 0:00.37 | 3:52.13 | 37 | 17449
2 | 3:52.50 | 6:30.17 | 17450 | 46716
3 | 10:22.67 | 3:50.18 | 46717 | 63984
4 | 14:13.10 | 4:34.52 | 63985 | 84586
5 | 18:47.62 | 4:14.25 | 84587 | 103661
6 | 23:02.12 | 4:26.40 | 103662 | 123651
7 | 27:28.52 | 3:26.33 | 123652 | 139134
8 | 30:55.10 | 4:03.30 | 139135 | 157389
9 | 34:58.40 | 4:18.25 | 157390 | 176764

Range status and errors

Selected range

Filename D:\bigggwest\Dio – Sacred Heart (WB 9 25292-2, Japan press).wav

Peak level 100.0 %
Range quality 100.0 %
Test CRC E2CC8A69
Copy CRC E2CC8A69
Copy OK

No errors occurred

AccurateRip summary

Track 1 accurately ripped (confidence 4) [AC026C86]
Track 2 accurately ripped (confidence 4) [4E192AB0]
Track 3 accurately ripped (confidence 4) [3CA2CF1A]
Track 4 accurately ripped (confidence 4) [87334D59]
Track 5 accurately ripped (confidence 4) [D59A5E07]
Track 6 accurately ripped (confidence 4) [F1C348CA]
Track 7 accurately ripped (confidence 4) [031688BA]
Track 8 accurately ripped (confidence 4) [0A0D7D42]
Track 9 accurately ripped (confidence 4) [74FD155C]

All tracks accurately ripped

End of status report

REM GENRE “Heavy Metal”
REM DATE 1985
REM DISCID 6A093409
REM COMMENT “ExactAudioCopy v0.99pb5”
PERFORMER “Dio”
TITLE “Sacred Heart (WB 9 25292-2, Japan press)”
FILE “Dio – Sacred Heart (WB 9 25292-2, Japan press).flac” WAVE
TRACK 01 AUDIO
TITLE “King Of Rock And Roll”
PERFORMER “Dio”
INDEX 00 00:00:00
INDEX 01 00:00:37
TRACK 02 AUDIO
TITLE “Sacred Heart”
PERFORMER “Dio”
INDEX 00 03:51:53
INDEX 01 03:52:50
TRACK 03 AUDIO
TITLE “Another Lie”
PERFORMER “Dio”
INDEX 00 10:20:28
INDEX 01 10:22:67
TRACK 04 AUDIO
TITLE “Rock ‘N’ Roll Children”
PERFORMER “Dio”
INDEX 00 14:12:21
INDEX 01 14:13:10
TRACK 05 AUDIO
TITLE “Hungry For Heaven”
PERFORMER “Dio”
INDEX 00 18:45:23
INDEX 01 18:47:62
TRACK 06 AUDIO
TITLE “Like The Beat Of A Heart”
PERFORMER “Dio”
INDEX 00 22:58:23
INDEX 01 23:02:12
TRACK 07 AUDIO
TITLE “Just Another Day”
PERFORMER “Dio”
INDEX 00 27:24:61
INDEX 01 27:28:52
TRACK 08 AUDIO
TITLE “Fallen Angels”
PERFORMER “Dio”
INDEX 00 30:50:56
INDEX 01 30:55:10
TRACK 09 AUDIO
TITLE “Shoot Shoot”
PERFORMER “Dio”
INDEX 00 34:56:06
INDEX 01 34:58:40


Spread the Download

Leave a Reply

Your email address will not be published. Required fields are marked *

Enter the text from the image below
 

This site uses Akismet to reduce spam. Learn how your comment data is processed.