Dio – Metal Hits




[Total: 0    Average: 0/5]

Artist: Dio
Year: 2005
Genre: Metal
Notes: Discogs
Add. Notes:
Cover incl.: Yes
Encoder: FLAC
Bitrate: ~900 kBit/s (44.1 kHz/16 Bit/s)
Log & Cue incl.: Yes
Size: 351,95 MB
Password: “slam” (without ” “)


All Downloads/Hosters are compatible

Download 1
Share-online.biz
KatFile.com
Rapidgator.net
Download 2
Share-online.biz
KatFile.com
Rapidgator.net

Tracklist:

1. Rainbow In The Dark 
2. Holy Diver 
3. Night People 
4. The Last In Line 
5. Evil Eyes 
6. Sunset Superman 
7. Dream Evil 
8. Hollywood Black
9. Wild One
10. Evilution

EAC-Log, CUE-Sheed & NFO:

Click to open spoiler
Exact Audio Copy V1.0 beta 3 from 29. August 2011

EAC extraction logfile from 19. February 2013, 17:35

Dio / Metal Hits (R2 73247)

Used drive : TEAC DV-W28EA Adapter: 0 ID: 1

Read mode : Secure
Utilize accurate stream : Yes
Defeat audio cache : Yes
Make use of C2 pointers : No

Read offset correction : 102
Overread into Lead-In and Lead-Out : No
Fill up missing offset samples with silence : Yes
Delete leading and trailing silent blocks : No
Null samples used in CRC calculations : Yes
Used interface : Native Win32 interface for Win NT & 2000

Used output format : Internal WAV Routines
Sample format : 44.100 Hz; 16 Bit; Stereo

TOC of the extracted CD

Track | Start | Length | Start sector | End sector
———————————————————
1 | 0:00.00 | 4:15.09 | 0 | 19133
2 | 4:15.09 | 5:52.03 | 19134 | 45536
3 | 10:07.12 | 4:07.56 | 45537 | 64117
4 | 14:14.68 | 5:46.04 | 64118 | 90071
5 | 20:00.72 | 3:39.44 | 90072 | 106540
6 | 23:40.41 | 5:47.31 | 106541 | 132596
7 | 29:27.72 | 4:23.74 | 132597 | 152395
8 | 33:51.71 | 5:11.10 | 152396 | 175730
9 | 39:03.06 | 4:07.03 | 175731 | 194258
10 | 43:10.09 | 5:35.61 | 194259 | 219444

Range status and errors

Selected range

Filename F:\bigggwest\Dio – Metal Hits (R2 73247).wav

Peak level 100.0 %
Extraction speed 3.8 X
Range quality 99.9 %
Test CRC 9140BBAB
Copy CRC 9140BBAB
Copy OK

No errors occurred

AccurateRip summary

Track 1 accurately ripped (confidence 2) [01668EE9] (AR v2)
Track 2 accurately ripped (confidence 2) [E3ADD662] (AR v2)
Track 3 accurately ripped (confidence 2) [8B75BCC3] (AR v2)
Track 4 accurately ripped (confidence 2) [D0A34B83] (AR v2)
Track 5 accurately ripped (confidence 2) [112076ED] (AR v2)
Track 6 accurately ripped (confidence 2) [B3556A2E] (AR v2)
Track 7 accurately ripped (confidence 2) [97E2966C] (AR v2)
Track 8 accurately ripped (confidence 2) [E2B3932A] (AR v2)
Track 9 accurately ripped (confidence 2) [E7012155] (AR v2)
Track 10 accurately ripped (confidence 2) [05722798] (AR v2)

All tracks accurately ripped

End of status report

==== Log checksum 423411F90D30807996A3FA155F5FD772EF49F7B5252FB54500086729E82ED9B2 ====

REM GENRE “Heavy Metal”
REM DATE 2005
REM DISCID 7F0B6D0A
REM COMMENT “ExactAudioCopy v1.0b3”
CATALOG 0081227324728
PERFORMER “Dio”
TITLE “Metal Hits (R2 73247)”
FILE “Dio – Metal Hits (R2 73247).flac” WAVE
TRACK 01 AUDIO
TITLE “Rainbow in the Dark”
PERFORMER “Dio”
ISRC UY>B19903259
INDEX 01 00:00:00
TRACK 02 AUDIO
TITLE “Holy Diver”
PERFORMER “Dio”
ISRC UY>B19903253
INDEX 00 04:13:09
INDEX 01 04:15:09
TRACK 03 AUDIO
TITLE “Night People”
PERFORMER “Dio”
ISRC UY>B10000814
INDEX 00 10:05:12
INDEX 01 10:07:12
TRACK 04 AUDIO
TITLE “The Last in Line”
PERFORMER “Dio”
ISRC UY>B10101315
INDEX 00 14:12:68
INDEX 01 14:14:68
TRACK 05 AUDIO
TITLE “Evil Eyes”
PERFORMER “Dio”
ISRC UY>B10101319
INDEX 00 19:58:72
INDEX 01 20:00:72
TRACK 06 AUDIO
TITLE “Sunset Superman”
PERFORMER “Dio”
ISRC UY>B10000816
INDEX 00 23:38:41
INDEX 01 23:40:41
TRACK 07 AUDIO
TITLE “Dream Evil”
PERFORMER “Dio”
ISRC UY>B10000815
INDEX 00 29:25:72
INDEX 01 29:27:72
TRACK 08 AUDIO
TITLE “Hollywood Black”
PERFORMER “Dio”
ISRC UY>E11010001
INDEX 00 33:49:71
INDEX 01 33:51:71
TRACK 09 AUDIO
TITLE “Wild One”
PERFORMER “Dio”
ISRC UY>E19901639
INDEX 00 39:01:06
INDEX 01 39:03:06
TRACK 10 AUDIO
TITLE “Evilution”
PERFORMER “Dio”
ISRC UY>E10100017
INDEX 00 43:08:09
INDEX 01 43:10:09


Spread the Download

Leave a Reply

Your email address will not be published. Required fields are marked *

Enter the text from the image below
 

This site uses Akismet to reduce spam. Learn how your comment data is processed.