Dio – Master Of The Moon (Japanese Edition)




Artist: Dio
Year: 2004/2005
Genre: Metal
Notes: Discogs
Add. Notes: Japanese Edition
Cover incl.: Yes
Encoder: FLAC
Bitrate: ~1000 kBit/s (44.1 kHz/16 Bit/s)
Log & Cue incl.: Yes
Size: 376,6 MB
Password: “slam” (without ” “)


All Downloads/Hosters are compatible

Download 1
KatFile.com
Turbobit.net
FileFactory.com
Rapidgator.net
Download 2
KatFile.com
Turbobit.net
FileFactory.com
Rapidgator.net

Tracklist:

1 One More For The Road  3:18
2 Master Of The Moon  4:19
3 The End Of The World  4:39
4 Shivers  4:16
5 The Man Who Would Be King 4:59
6 The Eyes  6:28
7 Living The Lie 4:26
8 I Am  5:00
9 Death By Love 4:22
10 In Dreams  4:23
Japan Bonus Track:
11 The Prisoner Of Paradise  4:01

EAC-Log, CUE-Sheed & NFO:

Click to open spoiler
Exact Audio Copy V0.99 prebeta 5 from 4. May 2009

Отчёт EAC об извлечении, выполненном 7. июня 2010, 14:04

Dio / Master Of The Moon (Japan)

Дисковод: ASUS DRW-1814BL Adapter: 4 ID: 1

Режим чтения : Достоверность
Использование точного потока : Да
Отключение кэша аудио : Да
Использование указателей C2 : Нет

Коррекция смещения при чтении : 6
Способность читать области Lead-in и Lead-out : Нет
Заполнение пропущенных сэмплов тишиной : Да
Удаление блоков с тишиной в начале и конце : Нет
При вычислениях CRC использовались нулевые сэмплы : Да
Интерфейс : Установленный внешний ASPI-интерфейс

Выходной формат : Внутренние WAV-операции
Формат сэмплов : 44.100 Гц; 16 бит; стерео
Смещение при сжатии : 0

TOC извлечённого CD

Трек | Старт | Длительность | Начальный сектор | Конечный сектор
———————————————————————
1 | 0:00.00 | 3:17.57 | 0 | 14831
2 | 3:17.57 | 4:18.65 | 14832 | 34246
3 | 7:36.47 | 4:39.23 | 34247 | 55194
4 | 12:15.70 | 4:15.60 | 55195 | 74379
5 | 16:31.55 | 4:58.45 | 74380 | 96774
6 | 21:30.25 | 6:27.55 | 96775 | 125854
7 | 27:58.05 | 4:25.55 | 125855 | 145784
8 | 32:23.60 | 5:00.22 | 145785 | 168306
9 | 37:24.07 | 4:21.65 | 168307 | 187946
10 | 41:45.72 | 4:22.55 | 187947 | 207651
11 | 46:08.52 | 4:00.58 | 207652 | 225709

Характеристики диапазона извлечения и сообщения об ошибках

Выбранный диапазон

Имя файла G:\Program files\Рипаные файлы\Dio – Master of the Moon (Japan)\Dio – Master Of The Moon (Japan).wav

Пиковый уровень 98.8 %
Качество диапазона 100.0 %
CRC копии DC2A6BE2
Копирование… OK

Ошибок не произошло

Конец отчёта

REM GENRE “Heavy Metal”
REM DATE 2004
REM DISCID A80BC10B
REM COMMENT “ExactAudioCopy v0.99pb5”
CATALOG 4988002475377
PERFORMER “Dio”
TITLE “Master Of The Moon (Japan)”
FILE “Dio – Master Of The Moon (Japan).flac” WAVE
TRACK 01 AUDIO
TITLE “One More For The Road”
PERFORMER “Dio”
ISRC GAQJ=0400804
INDEX 01 00:00:00
TRACK 02 AUDIO
TITLE “Master Of The Moon”
PERFORMER “Dio”
ISRC GAQJ=0400805
INDEX 01 03:17:57
TRACK 03 AUDIO
TITLE “The End Of The World”
PERFORMER “Dio”
ISRC GAQJ=0400806
INDEX 00 07:36:41
INDEX 01 07:36:47
TRACK 04 AUDIO
TITLE “Shivers”
PERFORMER “Dio”
ISRC GAQJ=0400807
INDEX 01 12:15:70
TRACK 05 AUDIO
TITLE “The Man Who Would Be King”
PERFORMER “Dio”
ISRC GAQJ=0400808
INDEX 01 16:31:55
TRACK 06 AUDIO
TITLE “The Eyes”
PERFORMER “Dio”
ISRC GAQJ=0400809
INDEX 01 21:30:25
TRACK 07 AUDIO
TITLE “Living The Lie”
PERFORMER “Dio”
ISRC GAQJ=0400810
INDEX 01 27:58:05
TRACK 08 AUDIO
TITLE “I Am”
PERFORMER “Dio”
ISRC GAQJ=0400811
INDEX 01 32:23:60
TRACK 09 AUDIO
TITLE “Death By Love”
PERFORMER “Dio”
ISRC GAQJ=0400812
INDEX 01 37:24:07
TRACK 10 AUDIO
TITLE “In Dreams”
PERFORMER “Dio”
ISRC GAQJ=0400812
INDEX 01 41:45:72
TRACK 11 AUDIO
TITLE “The Prisoner Of Paradise (Bonus Track)”
PERFORMER “Dio”
ISRC GAQJ=0400813
INDEX 01 46:08:52


Leave a Reply

Your email address will not be published. Required fields are marked *

Enter the text from the image below
 

This site uses Akismet to reduce spam. Learn how your comment data is processed.