Dio – Master Of The Moon




[Total: 0    Average: 0/5]

Artist: Dio
Year: 2004
Genre: Metal
Notes: Discogs
Add. Notes:
Cover incl.: Yes
Encoder: FLAC
Bitrate: ~1000 kBit/s (44.1 kHz/16 Bit/s)
Log & Cue incl.: Yes
Size: 620 MB
Password: “slam” (without ” “)


All Downloads/Hosters are compatible

Download 1
KatFile.com
Turbobit.net
FileFactory.com
Rapidgator.net
Download 2
KatFile.com
Turbobit.net
FileFactory.com
Rapidgator.net

Tracklist:

1 - One More For The Road - 3:17
2 - Master Of The Moon - 4:19
3 - The End Of The World - 4:39
4 - Shivers - 4:16
5 - The Man Who Would Be King - 
4:59
6 - The Eyes - 6:27
7 - Living The Lie - 4:26
8 - I Am - 5:00
9 - Death By Love - 4:22
10 - In Dreams - 4:26

EAC-Log, CUE-Sheed & NFO:

Click to open spoiler
Exact Audio Copy V1.0 beta 3 from 29. August 2011

EAC extraction logfile from 5. January 2013, 21:40

Dio / Dio – Master Of The Moon (promo)

Used drive : MATSHITABD-MLT UJ240ES Adapter: 0 ID: 0

Read mode : Secure
Utilize accurate stream : Yes
Defeat audio cache : Yes
Make use of C2 pointers : No

Read offset correction : 103
Overread into Lead-In and Lead-Out : No
Fill up missing offset samples with silence : Yes
Delete leading and trailing silent blocks : No
Null samples used in CRC calculations : Yes
Used interface : Native Win32 interface for Win NT & 2000

Used output format : User Defined Encoder
Selected bitrate : 128 kBit/s
Quality : High
Add ID3 tag : No
Command line compressor : C:\Program Files (x86)\Exact Audio Copy\Flac\flac.exe
Additional command line options : -V -8 %source%

TOC of the extracted CD

Track | Start | Length | Start sector | End sector
———————————————————
1 | 0:00.00 | 3:17.34 | 0 | 14808
2 | 3:17.34 | 4:19.12 | 14809 | 34245
3 | 7:36.46 | 4:39.01 | 34246 | 55171
4 | 12:15.47 | 4:15.48 | 55172 | 74344
5 | 16:31.20 | 4:58.57 | 74345 | 96751
6 | 21:30.02 | 6:27.52 | 96752 | 125828
7 | 27:57.54 | 4:25.58 | 125829 | 145761
8 | 32:23.37 | 5:00.21 | 145762 | 168282
9 | 37:23.58 | 4:21.66 | 168283 | 187923
10 | 41:45.49 | 4:26.06 | 187924 | 207879

Range status and errors

Selected range

Filename C:\Dio – Master Of The Moon (2004) [SPV 085-69912]\Dio – Dio – Master Of The Moon.wav

Peak level 98.8 %
Extraction speed 3.8 X
Range quality 100.0 %
Test CRC 8B0E4658
Copy CRC 8B0E4658
Copy OK

No errors occurred

AccurateRip summary

Track 1 accurately ripped (confidence 10) [5B05AE73] (AR v2)
Track 2 accurately ripped (confidence 10) [0CDA5588] (AR v2)
Track 3 accurately ripped (confidence 10) [527D7AAE] (AR v2)
Track 4 accurately ripped (confidence 10) [440477CF] (AR v2)
Track 5 accurately ripped (confidence 10) [9C4E20F6] (AR v2)
Track 6 accurately ripped (confidence 10) [363EEA2B] (AR v2)
Track 7 accurately ripped (confidence 10) [7E78F178] (AR v2)
Track 8 accurately ripped (confidence 10) [D96B335F] (AR v2)
Track 9 accurately ripped (confidence 10) [C40040C7] (AR v2)
Track 10 accurately ripped (confidence 10) [949CAECF] (AR v2)

All tracks accurately ripped

End of status report

==== Log checksum D91E3533EA65919CACF9F6B2EF5FAB215F5338E4EBC5917298CD65B9F8EF0C27 ====

REM GENRE Metal
REM DATE 2004
REM DISCID 9F0AD30A
REM COMMENT “ExactAudioCopy v1.0b3”
PERFORMER “Dio”
TITLE “Dio – Master Of The Moon ”
FILE “Dio – Master Of The Moon.flac” WAVE
TRACK 01 AUDIO
TITLE “One More For The Road”
PERFORMER “Dio”
INDEX 01 00:00:00
TRACK 02 AUDIO
TITLE “Master Of The Moon”
PERFORMER “Dio”
INDEX 01 03:17:34
TRACK 03 AUDIO
TITLE “The End Of The World”
PERFORMER “Dio”
INDEX 00 07:36:07
INDEX 01 07:36:46
TRACK 04 AUDIO
TITLE “Shivers”
PERFORMER “Dio”
INDEX 01 12:15:47
TRACK 05 AUDIO
TITLE “The Man Who Would Be King”
PERFORMER “Dio”
INDEX 01 16:31:20
TRACK 06 AUDIO
TITLE “The Eyes”
PERFORMER “Dio”
INDEX 01 21:30:02
TRACK 07 AUDIO
TITLE “Living The Lie”
PERFORMER “Dio”
INDEX 01 27:57:54
TRACK 08 AUDIO
TITLE “I Am”
PERFORMER “Dio”
INDEX 01 32:23:37
TRACK 09 AUDIO
TITLE “Death By Love”
PERFORMER “Dio”
INDEX 01 37:23:58
TRACK 10 AUDIO
TITLE “In Dreams”
PERFORMER “Dio”
INDEX 01 41:45:49


Spread the Download

Leave a Reply

Your email address will not be published. Required fields are marked *

Enter the text from the image below
 

This site uses Akismet to reduce spam. Learn how your comment data is processed.