Dio – Magica (Remastered Deluxe Edition)




[Total: 0    Average: 0/5]

Artist: Dio
Year: 2000/2013
Genre: Metal
Notes: Discogs
Add. Notes: Remastered Deluxe Edition
Cover incl.: Yes
Encoder: FLAC
Bitrate: ~900 kBit/s (44.1 kHz/16 Bit/s)
Log & Cue incl.: Yes
Size: 812,57 MB
Password: “slam” (without ” “)


All Downloads/Hosters are compatible

Download 1
Share-online.biz
KatFile.com
Rapidgator.net
NitroFlare.com
Download 2
Share-online.biz
KatFile.com
Rapidgator.net
NitroFlare.com

Tracklist:

Disc One
1 - Discovery - 0:54
2 - Magic Theme - 1:16
3 - Lord Of The Last Day - 4:04
4 - Fever Dreams - 4:37
5 - Turn To Stone - 5:19
6 - Feed My Head - 5:39
7 - Eriel - 7:23
8 - Challis - 4:01
9 - As Long As It's Not About Love - 6:28
10 - Losing My Insanity - 5:04
11 - Otherworld - 4:56
12 - Magica - Reprise - 1:53
13 - Lord Of The Last Day - Reprise - 1:41

Disc Two
1 - The Magica Story - 18:23
2 - Annica - 3:43
3 - Electra - 6:22
4 - Feed My Head - 5:43
5 - Fever Dreams - 4:17
6 - Lord Of The Last Day - 4:08
7 - As Long As It's Not About Love - 5:34
8 - Losing My Insanity - 4:04

EAC-Log, CUE-Sheed & NFO:

Click to open spoiler
Exact Audio Copy V1.0 beta 3 from 29. August 2011

EAC extraction logfile from 4. July 2013, 20:55

Dio / Magica (Deluxe Edition NEGO 17) CD 1

Used drive : TEAC DV-W28EA Adapter: 0 ID: 1

Read mode : Secure
Utilize accurate stream : Yes
Defeat audio cache : Yes
Make use of C2 pointers : No

Read offset correction : 102
Overread into Lead-In and Lead-Out : No
Fill up missing offset samples with silence : Yes
Delete leading and trailing silent blocks : No
Null samples used in CRC calculations : Yes
Used interface : Native Win32 interface for Win NT & 2000

Used output format : Internal WAV Routines
Sample format : 44.100 Hz; 16 Bit; Stereo

TOC of the extracted CD

Track | Start | Length | Start sector | End sector
———————————————————
1 | 0:00.00 | 0:54.52 | 0 | 4101
2 | 0:54.52 | 1:16.53 | 4102 | 9854
3 | 2:11.30 | 4:04.37 | 9855 | 28191
4 | 6:15.67 | 4:37.45 | 28192 | 49011
5 | 10:53.37 | 5:19.45 | 49012 | 72981
6 | 16:13.07 | 5:39.08 | 72982 | 98414
7 | 21:52.15 | 7:22.72 | 98415 | 131636
8 | 29:15.12 | 4:01.03 | 131637 | 149714
9 | 33:16.15 | 6:28.47 | 149715 | 178861
10 | 39:44.62 | 5:04.65 | 178862 | 201726
11 | 44:49.52 | 4:56.38 | 201727 | 223964
12 | 49:46.15 | 1:53.30 | 223965 | 232469
13 | 51:39.45 | 1:41.16 | 232470 | 240060

Range status and errors

Selected range

Filename H:\bigggwest\Dio – Magica (Deluxe Edition NEGO 17) CD 1.wav

Peak level 94.3 %
Extraction speed 4.0 X
Range quality 99.9 %
Test CRC 065A5B35
Copy CRC 065A5B35
Copy OK

No errors occurred

AccurateRip summary

Track 1 not present in database
Track 2 not present in database
Track 3 not present in database
Track 4 not present in database
Track 5 not present in database
Track 6 not present in database
Track 7 not present in database
Track 8 not present in database
Track 9 not present in database
Track 10 not present in database
Track 11 not present in database
Track 12 not present in database
Track 13 not present in database

None of the tracks are present in the AccurateRip database

End of status report

==== Log checksum E7F509EF9AE67DFE33C7ADB0E83EABCB887225037180DAF72DAFC64EDECD4B93 ====

Exact Audio Copy V1.0 beta 3 from 29. August 2011

EAC extraction logfile from 4. July 2013, 21:36

Dio / Magica (Deluxe Edition NEGO 17) CD 2

Used drive : TEAC DV-W28EA Adapter: 0 ID: 1

Read mode : Secure
Utilize accurate stream : Yes
Defeat audio cache : Yes
Make use of C2 pointers : No

Read offset correction : 102
Overread into Lead-In and Lead-Out : No
Fill up missing offset samples with silence : Yes
Delete leading and trailing silent blocks : No
Null samples used in CRC calculations : Yes
Used interface : Native Win32 interface for Win NT & 2000

Used output format : Internal WAV Routines
Sample format : 44.100 Hz; 16 Bit; Stereo

TOC of the extracted CD

Track | Start | Length | Start sector | End sector
———————————————————
1 | 0:00.00 | 18:23.70 | 0 | 82794
2 | 18:23.70 | 3:43.61 | 82795 | 99580
3 | 22:07.56 | 6:22.00 | 99581 | 128230
4 | 28:29.56 | 5:43.51 | 128231 | 154006
5 | 34:13.32 | 4:17.48 | 154007 | 173329
6 | 38:31.05 | 4:08.40 | 173330 | 191969
7 | 42:39.45 | 5:34.20 | 191970 | 217039
8 | 48:13.65 | 4:04.47 | 217040 | 235386

Range status and errors

Selected range

Filename H:\bigggwest\Dio – Magica (Deluxe Edition NEGO 17) CD 2.wav

Peak level 97.0 %
Extraction speed 4.0 X
Range quality 100.0 %
Test CRC 0AE5551D
Copy CRC 0AE5551D
Copy OK

No errors occurred

AccurateRip summary

Track 1 not present in database
Track 2 not present in database
Track 3 not present in database
Track 4 not present in database
Track 5 not present in database
Track 6 not present in database
Track 7 not present in database
Track 8 not present in database

None of the tracks are present in the AccurateRip database

End of status report

==== Log checksum 9F2B1907616BBCE30EECD05408937D84C99045EAA304DDD6F6F7CF7BC5C320FA ====

REM GENRE “Heavy Metal”
REM DATE 2013
REM DISCID C70C800D
REM COMMENT “ExactAudioCopy v1.0b3”
PERFORMER “Dio”
TITLE “Magica (Deluxe Edition NEGO 17) CD 1”
FILE “Dio – Magica (Deluxe Edition NEGO 17) CD 1.flac” WAVE
TRACK 01 AUDIO
TITLE “Discovery”
PERFORMER “Dio”
ISRC UY=EG1303101
INDEX 01 00:00:00
TRACK 02 AUDIO
TITLE “Magica Theme”
PERFORMER “Dio”
ISRC UY=EG1303102
INDEX 01 00:54:52
TRACK 03 AUDIO
TITLE “Lord Of The Last Day”
PERFORMER “Dio”
ISRC UY=EG1303103
INDEX 01 02:11:30
TRACK 04 AUDIO
TITLE “Fever Dreams”
PERFORMER “Dio”
ISRC UY=EG1303104
INDEX 01 06:15:67
TRACK 05 AUDIO
TITLE “Turn To Stone”
PERFORMER “Dio”
ISRC UY=EG1303105
INDEX 01 10:53:37
TRACK 06 AUDIO
TITLE “Feed My Head”
PERFORMER “Dio”
ISRC UY=EG1303106
INDEX 01 16:13:07
TRACK 07 AUDIO
TITLE “Eriel”
PERFORMER “Dio”
ISRC UY=EG1303107
INDEX 01 21:52:15
TRACK 08 AUDIO
TITLE “Challis”
PERFORMER “Dio”
ISRC UY=EG1303108
INDEX 01 29:15:12
TRACK 09 AUDIO
TITLE “As Long As It’s Not About Love”
PERFORMER “Dio”
ISRC UY=EG1303109
INDEX 01 33:16:15
TRACK 10 AUDIO
TITLE “Losing My Insanity”
PERFORMER “Dio”
ISRC UY=EG1303110
INDEX 01 39:44:62
TRACK 11 AUDIO
TITLE “Otherworld”
PERFORMER “Dio”
ISRC UY=EG1303111
INDEX 01 44:49:52
TRACK 12 AUDIO
TITLE “Magica-Reprise”
PERFORMER “Dio”
ISRC UY=EG1303112
INDEX 01 49:46:15
TRACK 13 AUDIO
TITLE “Lord Of The Last Day-Reprise”
PERFORMER “Dio”
ISRC UY=EG1303113
INDEX 01 51:39:45

REM GENRE “Heavy Metal”
REM DATE 2013
REM DISCID 5D0C4208
REM COMMENT “ExactAudioCopy v1.0b3”
PERFORMER “Dio”
TITLE “Magica (Deluxe Edition NEGO 17) CD 2”
FILE “Dio – Magica (Deluxe Edition NEGO 17) CD 2.flac” WAVE
TRACK 01 AUDIO
TITLE “The Magica Story (Narrated by Ronnie James Dio)”
PERFORMER “Dio”
ISRC UY=EG1303114
INDEX 01 00:00:00
TRACK 02 AUDIO
TITLE “Annica (Japanese Only)”
PERFORMER “Dio”
ISRC UY=EG1303115
INDEX 01 18:23:70
TRACK 03 AUDIO
TITLE ” Electra (Recorded for Magica 2 & 3)”
PERFORMER “Dio”
ISRC UY=EG1303116
INDEX 01 22:07:56
TRACK 04 AUDIO
TITLE “Feed My Head (Official Live Bootleg)”
PERFORMER “Dio”
ISRC UY=EG1303117
INDEX 01 28:29:56
TRACK 05 AUDIO
TITLE “Fever Dreams (Official Live Bootleg)”
PERFORMER “Dio”
ISRC UY=EG1303118
INDEX 01 34:13:32
TRACK 06 AUDIO
TITLE “Lord of the Last Day (Official Live Bootleg)”
PERFORMER “Dio”
ISRC UY=EG1303119
INDEX 01 38:31:05
TRACK 07 AUDIO
TITLE “As Long As It’s Not About Love (Official Live Bootleg)”
PERFORMER “Dio”
ISRC UY=EG1303120
INDEX 01 42:39:45
TRACK 08 AUDIO
TITLE “Losing My Insanity (Official Live Bootleg) ”
PERFORMER “Dio”
ISRC UY=EG1303121
INDEX 00 48:13:64
INDEX 01 48:13:65


Spread the Download

Leave a Reply

Your email address will not be published. Required fields are marked *

Enter the text from the image below
 

This site uses Akismet to reduce spam. Learn how your comment data is processed.