Dio – Lock Up The Wolves




Artist: Dio
Year: 1990
Genre: Metal
Notes: Discogs
Add. Notes:
Cover incl.: Yes
Encoder: FLAC
Bitrate: ~900 kBit/s (44.1 kHz/16 Bit/s)
Log & Cue incl.: Yes
Size: 429,08 MB
Password: “slam” (without ” “)


All Downloads/Hosters are compatible

Download 1
NitroFlare.com
KatFile.com
Turbobit.net
Rapidgator.net
UploadRar.com
Download 2
NitroFlare.com
KatFile.com
Turbobit.net
Rapidgator.net
UploadRar.com

Tracklist:

1 - Wild One - 4:02
2 - Born On The Sun - 5:39
3 - Hey Angel - 4:59
4 - Between Two Hearts - 6:27
5 - Night Music - 5:05
6 - Lock Up The Wolves - 8:30
7 - Evil On Queen Street - 6:01
8 - Walk On Water - 3:42
9 - Twisted - 4:44
10 - Why Are They Watching Me - 5:00
11 - My Eyes - 6:34

EAC-Log, CUE-Sheed & NFO:

Click to open spoiler
Exact Audio Copy V1.0 beta 3 from 29. August 2011

EAC extraction logfile from 9. January 2013, 1:17

Dio / Lock Up The Wolves

Used drive : Optiarc DVD-ROM DDU1675S Adapter: 3 ID: 0

Read mode : Secure
Utilize accurate stream : Yes
Defeat audio cache : Yes
Make use of C2 pointers : No

Read offset correction : 6
Overread into Lead-In and Lead-Out : No
Fill up missing offset samples with silence : Yes
Delete leading and trailing silent blocks : No
Null samples used in CRC calculations : Yes
Used interface : Native Win32 interface for Win NT & 2000

Used output format : User Defined Encoder
Selected bitrate : 1024 kBit/s
Quality : High
Add ID3 tag : No
Command line compressor : C:\Program Files (x86)\Exact Audio Copy\Flac\flac.exe
Additional command line options : -V -8 -T “Date=%year%” -T “Genre=%genre%” %source%

TOC of the extracted CD

Track | Start | Length | Start sector | End sector
———————————————————
1 | 0:00.33 | 4:05.20 | 33 | 18427
2 | 4:05.53 | 5:36.35 | 18428 | 43662
3 | 9:42.13 | 5:00.10 | 43663 | 66172
4 | 14:42.23 | 6:30.50 | 66173 | 95472
5 | 21:12.73 | 5:05.45 | 95473 | 118392
6 | 26:18.43 | 8:32.17 | 118393 | 156809
7 | 34:50.60 | 6:04.03 | 156810 | 184112
8 | 40:54.63 | 3:44.05 | 184113 | 200917
9 | 44:38.68 | 4:45.07 | 200918 | 222299
10 | 49:24.00 | 5:04.23 | 222300 | 245122
11 | 54:28.23 | 6:36.35 | 245123 | 274857

Range status and errors

Selected range

Filename F:\Dio – Lock Up The Wolves (Reprise Records, 9 26212-2, U.S.A.)\Dio – Lock Up The Wolves.wav

Peak level 100.0 %
Extraction speed 9.2 X
Range quality 100.0 %
Test CRC 7440B9E8
Copy CRC 7440B9E8
Copy OK

No errors occurred

AccurateRip summary

Track 1 accurately ripped (confidence 17) [22CAAD13] (AR v1)
Track 2 accurately ripped (confidence 16) [CF1EBC06] (AR v1)
Track 3 accurately ripped (confidence 16) [27D19D42] (AR v1)
Track 4 accurately ripped (confidence 17) [1C16232E] (AR v1)
Track 5 accurately ripped (confidence 16) [49B0855B] (AR v1)
Track 6 accurately ripped (confidence 14) [BA36E8E1] (AR v1)
Track 7 accurately ripped (confidence 16) [511BCEB5] (AR v1)
Track 8 accurately ripped (confidence 16) [BA72E608] (AR v1)
Track 9 accurately ripped (confidence 15) [9F7E4C73] (AR v1)
Track 10 accurately ripped (confidence 15) [089228EA] (AR v1)
Track 11 accurately ripped (confidence 14) [AB334D02] (AR v1)

All tracks accurately ripped

End of status report

==== Log checksum 7C47E3A3A8ED77943DEC8697EFE2392B5E2A36CA72E9EE7027CE36AE18903A0D ====

REM GENRE “Heavy Metal”
REM DATE 1990
REM DISCID A10E500B
REM COMMENT “ExactAudioCopy v1.0b3”
PERFORMER “Dio”
TITLE “Lock Up The Wolves”
FILE “Dio – Lock Up The Wolves.flac” WAVE
TRACK 01 AUDIO
TITLE “Wild One”
PERFORMER “Dio”
INDEX 00 00:00:00
INDEX 01 00:00:33
TRACK 02 AUDIO
TITLE “Born On The Sun”
PERFORMER “Dio”
INDEX 01 04:05:53
TRACK 03 AUDIO
TITLE “Hey Angel”
PERFORMER “Dio”
INDEX 00 09:41:33
INDEX 01 09:42:13
TRACK 04 AUDIO
TITLE “Between Two Hearts”
PERFORMER “Dio”
INDEX 00 14:40:35
INDEX 01 14:42:23
TRACK 05 AUDIO
TITLE “Night Music”
PERFORMER “Dio”
INDEX 00 21:10:50
INDEX 01 21:12:73
TRACK 06 AUDIO
TITLE “Lock Up The Wolves”
PERFORMER “Dio”
INDEX 01 26:18:43
TRACK 07 AUDIO
TITLE “Evil On Queen Street”
PERFORMER “Dio”
INDEX 00 34:50:38
INDEX 01 34:50:60
TRACK 08 AUDIO
TITLE “Walk On Water”
PERFORMER “Dio”
INDEX 00 40:53:73
INDEX 01 40:54:63
TRACK 09 AUDIO
TITLE “Twisted”
PERFORMER “Dio”
INDEX 00 44:38:00
INDEX 01 44:38:68
TRACK 10 AUDIO
TITLE “Why Are They Watching Me”
PERFORMER “Dio”
INDEX 00 49:23:10
INDEX 01 49:24:00
TRACK 11 AUDIO
TITLE “My Eyes”
PERFORMER “Dio”
INDEX 00 54:26:28
INDEX 01 54:28:23


Leave a Reply

Your email address will not be published. Required fields are marked *

This site uses Akismet to reduce spam. Learn how your comment data is processed.