Dio – Lock Up The Wolves (Japanese Edition)




[Total: 0    Average: 0/5]

Artist: Dio
Year: 1990
Genre: Metal
Notes: Discogs
Add. Notes: Japanese Edition
Cover incl.: Yes
Encoder: FLAC
Bitrate: ~900 kBit/s (44.1 kHz/16 Bit/s)
Log & Cue incl.: Yes
Size: 450 MB
Password: “slam” (without ” “)


All Downloads/Hosters are compatible

Download 1
Share-online.biz
KatFile.com
Rapidgator.net
Mexa.sh
Download 2
Share-online.biz
KatFile.com
Rapidgator.net
Mexa.sh

Tracklist:

1 - Wild One - 4:02
2 - Born On The Sun - 5:39
3 - Hey Angel - 4:59
4 - Between Two Hearts - 6:27
5 - Night Music - 5:05
6 - Lock Up The Wolves - 8:30
7 - Evil On Queen Street - 6:01
8 - Walk On Water - 3:42
9 - Twisted - 4:44
10 - Why Are They Watching Me - 
5:00
11 - My Eyes - 6:34

EAC-Log, CUE-Sheed & NFO:

Click to open spoiler
Exact Audio Copy V0.99 prebeta 4 from 23. January 2008

EAC extraction logfile from 29. March 2011, 17:14

Dio / Lock Up The Wolves (PHCR-1006)

Used drive : PLEXTOR DVDR PX-760A Adapter: 0 ID: 0

Read mode : Secure
Utilize accurate stream : Yes
Defeat audio cache : Yes
Make use of C2 pointers : No

Read offset correction : 30
Overread into Lead-In and Lead-Out : No
Fill up missing offset samples with silence : Yes
Delete leading and trailing silent blocks : No
Null samples used in CRC calculations : Yes
Used interface : Installed external ASPI interface

Used output format : Internal WAV Routines
Sample format : 44.100 Hz; 16 Bit; Stereo

TOC of the extracted CD

Track | Start | Length | Start sector | End sector
———————————————————
1 | 0:00.37 | 4:03.40 | 37 | 18301
2 | 4:04.02 | 5:38.58 | 18302 | 43709
3 | 9:42.60 | 5:00.10 | 43710 | 66219
4 | 14:42.70 | 6:30.57 | 66220 | 95526
5 | 21:13.52 | 5:05.65 | 95527 | 118466
6 | 26:19.42 | 8:32.43 | 118467 | 156909
7 | 34:52.10 | 6:03.45 | 156910 | 184179
8 | 40:55.55 | 3:44.10 | 184180 | 200989
9 | 44:39.65 | 4:44.62 | 200990 | 222351
10 | 49:24.52 | 5:04.25 | 222352 | 245176
11 | 54:29.02 | 6:36.58 | 245177 | 274934

Range status and errors

Selected range

Filename D:\bki71\Dio – Lock Up The Wolves (PHCR-1006).wav

Peak level 100.0 %
Range quality 100.0 %
Test CRC ACCB265C
Copy CRC ACCB265C
Copy OK

No errors occurred

AccurateRip summary

Track 1 accurately ripped (confidence 2) [8B2F2303]
Track 2 accurately ripped (confidence 2) [3E7A7F5A]
Track 3 accurately ripped (confidence 2) [7637243C]
Track 4 accurately ripped (confidence 1) [FBC8607C]
Track 5 accurately ripped (confidence 2) [F075FB1D]
Track 6 accurately ripped (confidence 1) [9B15746E]
Track 7 accurately ripped (confidence 1) [6647B5AF]
Track 8 accurately ripped (confidence 1) [3185E2BB]
Track 9 accurately ripped (confidence 1) [776C704B]
Track 10 accurately ripped (confidence 1) [F90BCAB8]
Track 11 accurately ripped (confidence 2) [C94B02B5]

All tracks accurately ripped

End of status report

REM GENRE “Heavy Metal”
REM DATE 1990
REM DISCID A70E510B
REM COMMENT “ExactAudioCopy v0.99pb4”
PERFORMER “Dio”
TITLE “Lock Up The Wolves (PHCR-1006)”
FILE “Dio – Lock Up The Wolves (PHCR-1006).flac” WAVE
TRACK 01 AUDIO
TITLE “Wild One”
PERFORMER “Dio”
INDEX 00 00:00:00
INDEX 01 00:00:37
TRACK 02 AUDIO
TITLE “Born On The Sun”
PERFORMER “Dio”
INDEX 01 04:04:02
TRACK 03 AUDIO
TITLE “Hey Angel”
PERFORMER “Dio”
INDEX 00 09:42:59
INDEX 01 09:42:60
TRACK 04 AUDIO
TITLE “Between Two Hearts”
PERFORMER “Dio”
INDEX 00 14:41:73
INDEX 01 14:42:70
TRACK 05 AUDIO
TITLE “Night Music”
PERFORMER “Dio”
INDEX 00 21:12:22
INDEX 01 21:13:52
TRACK 06 AUDIO
TITLE “Lock Up The Wolves”
PERFORMER “Dio”
INDEX 01 26:19:42
TRACK 07 AUDIO
TITLE “Evil On Queen Street”
PERFORMER “Dio”
INDEX 00 34:52:08
INDEX 01 34:52:10
TRACK 08 AUDIO
TITLE “Walk On Water”
PERFORMER “Dio”
INDEX 00 40:55:54
INDEX 01 40:55:55
TRACK 09 AUDIO
TITLE “Twisted”
PERFORMER “Dio”
INDEX 00 44:39:01
INDEX 01 44:39:65
TRACK 10 AUDIO
TITLE “Why Are They Watching Me”
PERFORMER “Dio”
INDEX 00 49:24:51
INDEX 01 49:24:52
TRACK 11 AUDIO
TITLE “My Eyes”
PERFORMER “Dio”
INDEX 00 54:28:03
INDEX 01 54:29:02


Spread the Download

Leave a Reply

Your email address will not be published. Required fields are marked *

Enter the text from the image below
 

This site uses Akismet to reduce spam. Learn how your comment data is processed.