Dio – Lock Up the Wolves




Artist: Dio
Year: 1990
Genre: Metal
Notes: Discogs
Add. Notes:
Cover incl.: Yes
Encoder: FLAC
Bitrate: ~900 kBit/s (44.1 kHz/16 Bit/s)
Log & Cue incl.: Yes
Size: 489,01 MB
Password: “slam” (without ” “)


All Downloads/Hosters are compatible

Download 1
Turbobit.net
KatFile.com
Rapidgator.net
Usersdrive.com
Download 2
Turbobit.net
KatFile.com
Rapidgator.net
Usersdrive.com

Tracklist:

1 - Wild One - 4:06
2 - Born On The Sun - 5:36
3 - Hey Angel - 5:00
4 - Between Two Hearts - 6:31
5 - Night Music - 5:05
6 - Lock Up The Wolves - 8:32
7 - Evil On Queen Street - 6:04
8 - Walk On Water - 3:45
9 - Twisted - 4:45
10 - Why Are They Watching Me - 5:04
11 - My Eyes - 6:38

EAC-Log, CUE-Sheed & NFO:

Click to open spoiler
Exact Audio Copy V1.0 beta 3 from 29. August 2011

EAC extraction logfile from 29. January 2013, 14:23

Dio / Lock Up the Wolves (846 033-2)

Used drive : Optiarc DVD RW AD-5170A Adapter: 0 ID: 0

Read mode : Secure
Utilize accurate stream : Yes
Defeat audio cache : Yes
Make use of C2 pointers : No

Read offset correction : 48
Overread into Lead-In and Lead-Out : No
Fill up missing offset samples with silence : Yes
Delete leading and trailing silent blocks : No
Null samples used in CRC calculations : Yes
Used interface : Native Win32 interface for Win NT & 2000

Used output format : Internal WAV Routines
Sample format : 44.100 Hz; 16 Bit; Stereo

TOC of the extracted CD

Track | Start | Length | Start sector | End sector
———————————————————
1 | 0:00.32 | 4:06.18 | 32 | 18499
2 | 4:06.50 | 5:35.40 | 18500 | 43664
3 | 9:42.15 | 5:00.17 | 43665 | 66181
4 | 14:42.32 | 6:30.50 | 66182 | 95481
5 | 21:13.07 | 5:05.45 | 95482 | 118401
6 | 26:18.52 | 8:32.18 | 118402 | 156819
7 | 34:50.70 | 6:04.02 | 156820 | 184121
8 | 40:54.72 | 3:44.05 | 184122 | 200926
9 | 44:39.02 | 4:45.08 | 200927 | 222309
10 | 49:24.10 | 5:04.22 | 222310 | 245131
11 | 54:28.32 | 6:36.10 | 245132 | 274841

Range status and errors

Selected range

Filename D:\bigggwest\Dio – Lock Up the Wolves (846 033-2).wav

Peak level 100.0 %
Extraction speed 5.3 X
Range quality 100.0 %
Test CRC 8BDE5B05
Copy CRC 8BDE5B05
Copy OK

No errors occurred

AccurateRip summary

Track 1 accurately ripped (confidence 8) [0B85C3AA] (AR v2)
Track 2 accurately ripped (confidence 9) [07DF2428] (AR v2)
Track 3 accurately ripped (confidence 9) [E44D81D7] (AR v2)
Track 4 accurately ripped (confidence 9) [23A4A53D] (AR v2)
Track 5 accurately ripped (confidence 9) [B194F468] (AR v2)
Track 6 accurately ripped (confidence 8) [C7DB49CD] (AR v2)
Track 7 accurately ripped (confidence 9) [BC0F62F9] (AR v2)
Track 8 accurately ripped (confidence 11) [EC228002] (AR v2)
Track 9 accurately ripped (confidence 10) [B98FA3FA] (AR v2)
Track 10 accurately ripped (confidence 10) [1BC6B79B] (AR v2)
Track 11 accurately ripped (confidence 9) [7FFBAAEB] (AR v2)

All tracks accurately ripped

End of status report

==== Log checksum 0ABE1770A12C1B75F4976FC07135CAB997954BDF7B23DB891CBCED956C69230E ====

REM GENRE “Heavy Metal”
REM DATE 1990
REM DISCID A40E500B
REM COMMENT “ExactAudioCopy v1.0b3”
CATALOG 0042284603324
PERFORMER “Dio”
TITLE “Lock Up the Wolves (846 033-2)”
FILE “Dio – Lock Up the Wolves (846 033-2).flac” WAVE
TRACK 01 AUDIO
TITLE “Wild One”
PERFORMER “Dio”
ISRC 000000000000
INDEX 00 00:00:00
INDEX 01 00:00:32
TRACK 02 AUDIO
TITLE “Born on the Sun”
PERFORMER “Dio”
ISRC 000000000000
INDEX 01 04:06:50
TRACK 03 AUDIO
TITLE “Hey Angel”
PERFORMER “Dio”
ISRC 000000000000
INDEX 00 09:41:27
INDEX 01 09:42:15
TRACK 04 AUDIO
TITLE “Between Two Hearts”
PERFORMER “Dio”
ISRC 000000000000
INDEX 00 14:40:20
INDEX 01 14:42:32
TRACK 05 AUDIO
TITLE “Night Music”
PERFORMER “Dio”
ISRC 000000000000
INDEX 00 21:10:47
INDEX 01 21:13:07
TRACK 06 AUDIO
TITLE “Lock Up the Wolves”
PERFORMER “Dio”
ISRC 000000000000
INDEX 00 26:18:35
INDEX 01 26:18:52
TRACK 07 AUDIO
TITLE “Evil on Queen Street”
PERFORMER “Dio”
ISRC 000000000000
INDEX 00 34:50:22
INDEX 01 34:50:70
TRACK 08 AUDIO
TITLE “Walk on Water”
PERFORMER “Dio”
ISRC 000000000000
INDEX 00 40:53:57
INDEX 01 40:54:72
TRACK 09 AUDIO
TITLE “Twisted”
PERFORMER “Dio”
ISRC 000000000000
INDEX 00 44:37:60
INDEX 01 44:39:02
TRACK 10 AUDIO
TITLE “Why Are They Watching Me”
PERFORMER “Dio”
ISRC 000000000000
INDEX 00 49:22:70
INDEX 01 49:24:10
TRACK 11 AUDIO
TITLE “My Eyes”
PERFORMER “Dio”
ISRC 000000000000
INDEX 00 54:26:12
INDEX 01 54:28:32


Leave a Reply

Your email address will not be published. Required fields are marked *

This site uses Akismet to reduce spam. Learn how your comment data is processed.