Dio – Live In London Hammersmith Apollo 1993




[Total: 0    Average: 0/5]

Artist: Dio
Year: 2014
Genre: Metal
Notes: Discogs
Add. Notes:
Cover incl.: Yes
Encoder: FLAC
Bitrate: ~1000 kBit/s (44.1 kHz/16 Bit/s)
Log & Cue incl.: Yes
Size: 726,96 MB
Password: “slam” (without ” “)


All Downloads/Hosters are compatible

Download 1
Share-online.biz
KatFile.com
Rapidgator.net
Download 2
Share-online.biz
KatFile.com
Rapidgator.net

Tracklist:

1-1 - Stand Up And Shout - 4:20
1-2 - Strange Highways - 6:12
1-3 - Don't Talk To Strangers - 5:51
1-4 - Evilution - 6:45
1-5 - Pain - 9:36
1-6 - The Mob Rules - 3:42
1-7 - Children Of The Sea - 2:42
1-8 - Holy Diver - 4:26
1-9 - Heaven And Hell - 3:48
1-10 - Man On The Silver Mountain - 2:22
1-11 - Drum Solo - 5:52
1-12 - Heaven And Hell (Reprise) - 1:41

2-1 - Jesus Mary And The Holy Ghost - 4:14
2-2 - Hollywood Black - 5:23
2-3 - The Last In Line - 6:48
2-4 - Rainbow In The Dark - 5:01
2-5 - We Rock - 5:17
2-6 - Here's To You - 5:08

EAC-Log, CUE-Sheed & NFO:

Click to open spoiler
Exact Audio Copy V1.0 beta 3 from 29. August 2011

EAC extraction logfile from 1. June 2014, 11:15

Dio / Live In London – Hammersmith Apollo 1993 (CD 1, ER203572)

Used drive : MATSHITABD-CMB UJ160 Adapter: 0 ID: 2

Read mode : Secure
Utilize accurate stream : Yes
Defeat audio cache : Yes
Make use of C2 pointers : No

Read offset correction : 103
Overread into Lead-In and Lead-Out : No
Fill up missing offset samples with silence : Yes
Delete leading and trailing silent blocks : No
Null samples used in CRC calculations : Yes
Used interface : Native Win32 interface for Win NT & 2000

Used output format : User Defined Encoder
Selected bitrate : 1024 kBit/s
Quality : High
Add ID3 tag : No
Command line compressor : C:\Program Files (x86)\FLAC\flac.exe
Additional command line options : -V -8 -T “Date=%year%” -T “Genre=%genre%” %source%

TOC of the extracted CD

Track | Start | Length | Start sector | End sector
———————————————————
1 | 0:00.00 | 4:20.49 | 0 | 19548
2 | 4:20.49 | 6:12.03 | 19549 | 47451
3 | 10:32.52 | 5:51.37 | 47452 | 73813
4 | 16:24.14 | 6:45.67 | 73814 | 104255
5 | 23:10.06 | 9:36.09 | 104256 | 147464
6 | 32:46.15 | 3:42.04 | 147465 | 164118
7 | 36:28.19 | 2:42.41 | 164119 | 176309
8 | 39:10.60 | 4:26.33 | 176310 | 196292
9 | 43:37.18 | 3:48.41 | 196293 | 213433
10 | 47:25.59 | 2:22.35 | 213434 | 224118
11 | 49:48.19 | 5:52.45 | 224119 | 250563
12 | 55:40.64 | 1:41.06 | 250564 | 258144

Range status and errors

Selected range

Filename D:\Ripped By liveevil\Dio – Live In London – Hammersmith Apollo 1993 (CD 1, ER203572).wav

Peak level 100.0 %
Extraction speed 4.2 X
Range quality 100.0 %
Test CRC 3F0B5F40
Copy CRC 3F0B5F40
Copy OK

No errors occurred

AccurateRip summary

Track 1 not present in database
Track 2 not present in database
Track 3 not present in database
Track 4 not present in database
Track 5 not present in database
Track 6 not present in database
Track 7 not present in database
Track 8 not present in database
Track 9 not present in database
Track 10 not present in database
Track 11 not present in database
Track 12 not present in database

None of the tracks are present in the AccurateRip database

End of status report

==== Log checksum 84856CDBFC487D6249F21FD9006E9C0A382D36F58B358541D39DC30B74E59C0B ====

REM GENRE “Heavy Metal”
REM DATE 2014
REM DISCID B60D710C
REM COMMENT “ExactAudioCopy v1.0b3”
PERFORMER “Dio”
TITLE “Live In London – Hammersmith Apollo 1993 (CD 1, ER203572)”
FILE “Dio – Live In London – Hammersmith Apollo 1993 (CD 1, ER203572).flac” WAVE
TRACK 01 AUDIO
TITLE “Stand Up And Shout”
PERFORMER “Dio”
FLAGS DCP
INDEX 01 00:00:00
TRACK 02 AUDIO
TITLE “Strange Highways”
PERFORMER “Dio”
FLAGS DCP
INDEX 01 04:20:49
TRACK 03 AUDIO
TITLE “Don’t Talk To Strangers”
PERFORMER “Dio”
FLAGS DCP
INDEX 01 10:32:52
TRACK 04 AUDIO
TITLE “Evilution”
PERFORMER “Dio”
FLAGS DCP
INDEX 01 16:24:14
TRACK 05 AUDIO
TITLE “Pain (With Guitar Solo)”
PERFORMER “Dio”
FLAGS DCP
INDEX 01 23:10:06
TRACK 06 AUDIO
TITLE “The Mob Rules”
PERFORMER “Dio”
FLAGS DCP
INDEX 01 32:46:15
TRACK 07 AUDIO
TITLE “Children Of The Sea”
PERFORMER “Dio”
FLAGS DCP
INDEX 01 36:28:19
TRACK 08 AUDIO
TITLE “Holy Diver”
PERFORMER “Dio”
FLAGS DCP
INDEX 01 39:10:60
TRACK 09 AUDIO
TITLE “Heaven And Hell”
PERFORMER “Dio”
FLAGS DCP
INDEX 01 43:37:18
TRACK 10 AUDIO
TITLE “Man On The Silver Mountain”
PERFORMER “Dio”
FLAGS DCP
INDEX 01 47:25:59
TRACK 11 AUDIO
TITLE “Drum Solo”
PERFORMER “Dio”
FLAGS DCP
INDEX 01 49:48:19
TRACK 12 AUDIO
TITLE “Heaven And Hell (Reprise)”
PERFORMER “Dio”
FLAGS DCP
INDEX 01 55:40:64

Exact Audio Copy V1.0 beta 3 from 29. August 2011

EAC extraction logfile from 1. June 2014, 11:38

Dio / Live In London – Hammersmith Apollo 1993 (CD 2, ER203572)

Used drive : MATSHITABD-CMB UJ160 Adapter: 0 ID: 2

Read mode : Secure
Utilize accurate stream : Yes
Defeat audio cache : Yes
Make use of C2 pointers : No

Read offset correction : 103
Overread into Lead-In and Lead-Out : No
Fill up missing offset samples with silence : Yes
Delete leading and trailing silent blocks : No
Null samples used in CRC calculations : Yes
Used interface : Native Win32 interface for Win NT & 2000

Used output format : User Defined Encoder
Selected bitrate : 1024 kBit/s
Quality : High
Add ID3 tag : No
Command line compressor : C:\Program Files (x86)\FLAC\flac.exe
Additional command line options : -V -8 -T “Date=%year%” -T “Genre=%genre%” %source%

TOC of the extracted CD

Track | Start | Length | Start sector | End sector
———————————————————
1 | 0:00.00 | 4:14.50 | 0 | 19099
2 | 4:14.50 | 5:23.59 | 19100 | 43383
3 | 9:38.34 | 6:48.39 | 43384 | 74022
4 | 16:26.73 | 5:01.59 | 74023 | 96656
5 | 21:28.57 | 5:17.23 | 96657 | 120454
6 | 26:46.05 | 5:08.66 | 120455 | 143620

Range status and errors

Selected range

Filename D:\Ripped By liveevil\Dio – Live In London – Hammersmith Apollo 1993 (CD 2, ER203572).wav

Peak level 100.0 %
Extraction speed 3.4 X
Range quality 99.9 %
Test CRC 2A21B757
Copy CRC 2A21B757
Copy OK

No errors occurred

AccurateRip summary

Track 1 not present in database
Track 2 not present in database
Track 3 not present in database
Track 4 not present in database
Track 5 not present in database
Track 6 not present in database

None of the tracks are present in the AccurateRip database

End of status report

==== Log checksum 2F779FC838CA8ABBD8781499017AC98595644698345B39DD6168798CD892681C ====

REM GENRE “Heavy Metal”
REM DATE 2014
REM DISCID 50077A06
REM COMMENT “ExactAudioCopy v1.0b3”
PERFORMER “Dio”
TITLE “Live In London – Hammersmith Apollo 1993 (CD 2, ER203572)”
FILE “Dio – Live In London – Hammersmith Apollo 1993 (CD 2, ER203572).flac” WAVE
TRACK 01 AUDIO
TITLE “Jesus Mary & The Holy Ghost”
PERFORMER “Dio”
FLAGS DCP
INDEX 01 00:00:00
TRACK 02 AUDIO
TITLE “Hollywood Black”
PERFORMER “Dio”
FLAGS DCP
INDEX 01 04:14:50
TRACK 03 AUDIO
TITLE “The Last In Line”
PERFORMER “Dio”
FLAGS DCP
INDEX 01 09:38:34
TRACK 04 AUDIO
TITLE “Rainbow In The Dark”
PERFORMER “Dio”
FLAGS DCP
INDEX 01 16:26:73
TRACK 05 AUDIO
TITLE “We Rock”
PERFORMER “Dio”
FLAGS DCP
INDEX 01 21:28:57
TRACK 06 AUDIO
TITLE “Here’s To You”
PERFORMER “Dio”
FLAGS DCP
INDEX 01 26:46:05


Spread the Download

Leave a Reply

Your email address will not be published. Required fields are marked *

Enter the text from the image below
 

This site uses Akismet to reduce spam. Learn how your comment data is processed.