Dio – Killing The Dragon




Artist: Dio
Year: 2002
Genre: Metal
Notes: Discogs
Add. Notes:
Cover incl.: Yes
Encoder: FLAC
Bitrate: ~1000 kBit/s (44.1 kHz/16 Bit/s)
Log & Cue incl.: Yes
Size: 369,4 MB
Password: “slam” (without ” “)


All Downloads/Hosters are compatible

Download 1
Turbobit.net
NitroFlare.com
Rapidgator.net
Download 2
Turbobit.net
NitroFlare.com
Rapidgator.net

Tracklist:

1 - Killing The Dragon - 4:25
2 - Along Comes A Spider - 3:32
3 - Scream - 5:02
4 - Better In The Dark - 3:41
5 - Rock & Roll - 6:11
6 - Push - 4:08
7 - Guilty - 4:25
8 - Throw Away Children - 5:35
9 - Before The Fall - 3:47
10 - Cold Feet - 4:11

EAC-Log, CUE-Sheed & NFO:

Click to open spoiler
Exact Audio Copy V0.99 prebeta 5 from 4. May 2009

EAC extraction logfile from 24. January 2013, 23:14

Dio / Killing The Dragon (SPITCD199)

Used drive : PLEXTOR DVDR PX-612U Adapter: 0 ID: 0

Read mode : Secure
Utilize accurate stream : Yes
Defeat audio cache : Yes
Make use of C2 pointers : No

Read offset correction : 6
Overread into Lead-In and Lead-Out : No
Fill up missing offset samples with silence : Yes
Delete leading and trailing silent blocks : No
Null samples used in CRC calculations : Yes
Used interface : Native Win32 interface for Win NT & 2000

Used output format : User Defined Encoder
Selected bitrate : 1024 kBit/s
Quality : High
Add ID3 tag : No
Command line compressor : C:\Program Files (x86)\Exact Audio Copy\Flac\flac.exe
Additional command line options : -T “DATE=%y” -T “GENRE=%m” -8 -V %s

TOC of the extracted CD

Track | Start | Length | Start sector | End sector
———————————————————
1 | 0:00.00 | 4:25.35 | 0 | 19909
2 | 4:25.35 | 3:32.42 | 19910 | 35851
3 | 7:58.02 | 5:02.70 | 35852 | 58571
4 | 13:00.72 | 3:43.23 | 58572 | 75319
5 | 16:44.20 | 6:11.50 | 75320 | 103194
6 | 22:55.70 | 4:08.72 | 103195 | 121866
7 | 27:04.67 | 4:26.05 | 121867 | 141821
8 | 31:30.72 | 5:35.55 | 141822 | 167001
9 | 37:06.52 | 3:48.13 | 167002 | 184114
10 | 40:54.65 | 4:11.40 | 184115 | 202979

Range status and errors

Selected range

Filename D:\Ripped By liveevil\Dio – Killing The Dragon (SPITCD199).wav

Peak level 98.8 %
Range quality 100.0 %
Test CRC F75EC8FE
Copy CRC F75EC8FE
Copy OK

No errors occurred

AccurateRip summary

Track 1 accurately ripped (confidence 63) [FE817310]
Track 2 accurately ripped (confidence 62) [E6DF3ADB]
Track 3 accurately ripped (confidence 62) [6509DCD3]
Track 4 accurately ripped (confidence 63) [4B889CEF]
Track 5 accurately ripped (confidence 63) [80B3CC89]
Track 6 accurately ripped (confidence 63) [FF2D5EA9]
Track 7 accurately ripped (confidence 62) [E8726790]
Track 8 accurately ripped (confidence 63) [F5719C0E]
Track 9 accurately ripped (confidence 62) [6908E583]
Track 10 accurately ripped (confidence 62) [128109DB]

All tracks accurately ripped

End of status report

REM GENRE “Heavy Metal”
REM DATE 2002
REM DISCID 890A920A
REM COMMENT “ExactAudioCopy v0.99pb5”
PERFORMER “Dio”
TITLE “Killing The Dragon (SPITCD199)”
FILE “Dio – Killing The Dragon (SPITCD199).flac” WAVE
TRACK 01 AUDIO
TITLE “Killing The Dragon”
PERFORMER “Dio”
INDEX 01 00:00:00
TRACK 02 AUDIO
TITLE “Along Comes A Spider”
PERFORMER “Dio”
INDEX 01 04:25:35
TRACK 03 AUDIO
TITLE “Scream”
PERFORMER “Dio”
INDEX 00 07:57:50
INDEX 01 07:58:02
TRACK 04 AUDIO
TITLE “Better In The Dark”
PERFORMER “Dio”
INDEX 00 13:00:65
INDEX 01 13:00:72
TRACK 05 AUDIO
TITLE “Rock & Roll”
PERFORMER “Dio”
INDEX 00 16:43:00
INDEX 01 16:44:20
TRACK 06 AUDIO
TITLE “Push”
PERFORMER “Dio”
INDEX 01 22:55:70
TRACK 07 AUDIO
TITLE “Guilty”
PERFORMER “Dio”
INDEX 00 27:04:37
INDEX 01 27:04:67
TRACK 08 AUDIO
TITLE “Throw Away Children”
PERFORMER “Dio”
INDEX 01 31:30:72
TRACK 09 AUDIO
TITLE “Before The Fall”
PERFORMER “Dio”
INDEX 00 37:06:12
INDEX 01 37:06:52
TRACK 10 AUDIO
TITLE “Cold Feet”
PERFORMER “Dio”
INDEX 00 40:54:35
INDEX 01 40:54:65


Leave a Reply

Your email address will not be published. Required fields are marked *

This site uses Akismet to reduce spam. Learn how your comment data is processed.