Dio – Killing The Dragon (Limited Edition)




[Total: 0    Average: 0/5]

Artist: Dio
Year: 2002
Genre: Metal
Notes: Discogs
Add. Notes: Limited Edition
Cover incl.: Yes
Encoder: FLAC
Bitrate: ~1000 kBit/s (44.1 kHz/16 Bit/s)
Log & Cue incl.: Yes
Size: 514,29 MB
Password: “slam” (without ” “)


All Downloads/Hosters are compatible

Download 1
Share-online.biz
KatFile.com
Rapidgator.net
DoUploads.net
Download 2
Share-online.biz
KatFile.com
Rapidgator.net
DoUploads.net

Tracklist:

1 - Killing The Dragon 	4:25
2 - Along Comes A Spider 	3:32
3 - Scream 	5:02
4 - Better In The Dark 	3:41
5 - Rock & Roll 	6:11
6 - Push 	4:08
7 - Guilty 	4:25
8 - Throw Away Children 	5:35
9 - Before The Fall 	3:47
10 - Cold Feet 	4:11
11 - Fever Dreams (Live) 	
12 - Rainbow In The Dark (Live) 
	
+ Push (Video)

EAC-Log, CUE-Sheed & NFO:

Click to open spoiler
Exact Audio Copy V1.0 beta 3 from 29. August 2011

EAC extraction logfile from 9. January 2013, 0:27

Dio / Killing The Dragon (Limited Tour Edition)

Used drive : Optiarc DVD RW AD-7203S Adapter: 1 ID: 1

Read mode : Secure
Utilize accurate stream : Yes
Defeat audio cache : Yes
Make use of C2 pointers : No

Read offset correction : 48
Overread into Lead-In and Lead-Out : No
Fill up missing offset samples with silence : Yes
Delete leading and trailing silent blocks : No
Null samples used in CRC calculations : Yes
Used interface : Native Win32 interface for Win NT & 2000

Used output format : User Defined Encoder
Selected bitrate : 768 kBit/s
Quality : High
Add ID3 tag : No
Command line compressor : C:\Program Files (x86)\Exact Audio Copy\FLAC\FLAC.EXE
Additional command line options : -6 -V -T “ARTIST=%artist%” -T “TITLE=%title%” -T “ALBUM=%albumtitle%” -T “DATE=%year%” -T “TRACKNUMBER=%tracknr%” -T “GENRE=%genre%” -T “COMMENT=%comment%” -T “BAND=%albuminterpret%” -T “ALBUMARTIST=%albuminterpret%” -T “COMPOSER=%composer%” %haslyrics%–tag-from-file=LYRICS=”%lyricsfile%”%haslyrics% -T “DISCNUMBER=%cdnumber%” -T “TOTALDISCS=%totalcds%” -T “TOTALTRACKS=%numtracks%” %hascover%–picture=”%coverfile%”%hascover% %source% -o %dest%

TOC of the extracted CD

Track | Start | Length | Start sector | End sector
———————————————————
1 | 0:00.00 | 4:26.15 | 0 | 19964
2 | 4:26.15 | 3:33.51 | 19965 | 35990
3 | 7:59.66 | 5:02.45 | 35991 | 58685
4 | 13:02.36 | 3:42.06 | 58686 | 75341
5 | 16:44.42 | 6:13.50 | 75342 | 103366
6 | 22:58.17 | 4:08.24 | 103367 | 121990
7 | 27:06.41 | 4:26.29 | 121991 | 141969
8 | 31:32.70 | 5:35.11 | 141970 | 167105
9 | 37:08.06 | 3:48.44 | 167106 | 184249
10 | 40:56.50 | 4:13.38 | 184250 | 203262
11 | 45:10.13 | 4:24.01 | 203263 | 223063
12 | 49:34.14 | 4:50.08 | 223064 | 244821
13 | 56:56.22 | 12:26.36 | 256222 | 312207

Range status and errors

Selected range

Filename K:\Uploads\Dio – Killing The Dragon\Dio – Killing The Dragon (Limited Tour Edition).wav

Peak level 99.8 %
Extraction speed 3.7 X
Range quality 100.0 %
Test CRC 34FE053A
Copy CRC 34FE053A
Copy OK

No errors occurred

AccurateRip summary

Track 1 accurately ripped (confidence 8) [6CE84E68] (AR v1)
Track 2 accurately ripped (confidence 8) [689F523F] (AR v1)
Track 3 accurately ripped (confidence 8) [ADAB6553] (AR v1)
Track 4 accurately ripped (confidence 8) [04C67CC2] (AR v1)
Track 5 accurately ripped (confidence 8) [8AF72FEA] (AR v1)
Track 6 accurately ripped (confidence 8) [E4C5DD18] (AR v1)
Track 7 accurately ripped (confidence 8) [EB535283] (AR v1)
Track 8 accurately ripped (confidence 8) [B06EB26E] (AR v1)
Track 9 accurately ripped (confidence 8) [596EFCFB] (AR v1)
Track 10 accurately ripped (confidence 8) [01F2E81A] (AR v1)
Track 11 accurately ripped (confidence 8) [43E95DE1] (AR v1)
Track 12 accurately ripped (confidence 8) [90BF798F] (AR v1)

All tracks accurately ripped

End of status report

==== Log checksum 2DB38A48DA2C8BC3F4588B1948D5A58D3652A0F8C4BC09EB20249CA67625727B ====

REM GENRE “Heavy Metal”
REM DATE 2002
REM DISCID BA10420D
REM COMMENT “ExactAudioCopy v1.0b3”
PERFORMER “Dio”
TITLE “Killing The Dragon (Limited Tour Edition)”
FILE “Dio – Killing The Dragon (Limited Tour Edition).flac” WAVE
TRACK 01 AUDIO
TITLE “Killing The Dragon”
PERFORMER “Dio”
INDEX 01 00:00:00
TRACK 02 AUDIO
TITLE “Along Comes A Spider”
PERFORMER “Dio”
INDEX 00 04:24:15
INDEX 01 04:26:15
TRACK 03 AUDIO
TITLE “Scream”
PERFORMER “Dio”
INDEX 00 07:57:66
INDEX 01 07:59:66
TRACK 04 AUDIO
TITLE “Better In The Dark”
PERFORMER “Dio”
INDEX 00 13:00:36
INDEX 01 13:02:36
TRACK 05 AUDIO
TITLE “Rock & Roll”
PERFORMER “Dio”
INDEX 00 16:42:42
INDEX 01 16:44:42
TRACK 06 AUDIO
TITLE “Push”
PERFORMER “Dio”
INDEX 00 22:56:17
INDEX 01 22:58:17
TRACK 07 AUDIO
TITLE “Guilty”
PERFORMER “Dio”
INDEX 00 27:04:41
INDEX 01 27:06:41
TRACK 08 AUDIO
TITLE “Throw Away Children”
PERFORMER “Dio”
INDEX 00 31:30:70
INDEX 01 31:32:70
TRACK 09 AUDIO
TITLE “Before The Fall”
PERFORMER “Dio”
INDEX 00 37:06:06
INDEX 01 37:08:06
TRACK 10 AUDIO
TITLE “Cold Feet”
PERFORMER “Dio”
INDEX 00 40:54:50
INDEX 01 40:56:50
TRACK 11 AUDIO
TITLE “Ronnie James Dio (With Deep Purple) – Fever Dreams (Live)”
PERFORMER “Dio”
INDEX 00 45:08:13
INDEX 01 45:10:13
TRACK 12 AUDIO
TITLE “Ronnie James Dio (With Deep Purple) – Rainbow In The Dark (Live)”
PERFORMER “Dio”
INDEX 01 49:34:14


Spread the Download

Leave a Reply

Your email address will not be published. Required fields are marked *

Enter the text from the image below
 

This site uses Akismet to reduce spam. Learn how your comment data is processed.