Dio – Killing The Dragon (Japanese Edition)




[Total: 0    Average: 0/5]

Artist: Dio
Year: 2002
Genre: Metal
Notes: Discogs
Add. Notes: Japanese Edition
Cover incl.: Yes
Encoder: FLAC
Bitrate: ~1000 kBit/s (44.1 kHz/16 Bit/s)
Log & Cue incl.: Yes
Size: 325,06 MB
Password: “slam” (without ” “)


All Downloads/Hosters are compatible

Download 1
Share-online.biz
KatFile.com
Rapidgator.net
Mexa.sh
Download 2
Share-online.biz
KatFile.com
Rapidgator.net
Mexa.sh

Tracklist:

1 - Killing The Dragon - 4:25
2 - Along Comes A Spider - 3:32
3 - Scream - 5:02
4 - Better In The Dark - 3:41
5 - Rock & Roll - 6:11
6 - Push - 4:08
7 - Guilty - 4:25
8 - Throw Away Children - 5:35
9 - Before The Fall - 3:47
10 - Cold Feet - 4:11

EAC-Log, CUE-Sheed & NFO:

Click to open spoiler
QExact Audio Copy V1.0 beta 3 from 29. August 2011

Отчёт EAC об извлечении, выполненном 9. января 2013, 18:44

Dio / Killing The Dragon

Дисковод: SONY DVD RW DRU-190S Adapter: 5 ID: 0

Режим чтения : Достоверность
Использование точного потока : Да
Отключение кэша аудио : Да
Использование указателей C2 : Нет

Коррекция смещения при чтении : 6
Способность читать области Lead-in и Lead-out : Нет
Заполнение пропущенных сэмплов тишиной : Да
Удаление блоков с тишиной в начале и конце : Нет
При вычислениях CRC использовались нулевые сэмплы : Да
Интерфейс : Встроенный Win32-интерфейс для Win NT/2000

Выходной формат : Пользовательский кодировщик
Выбранный битрейт : 768 kBit/s
Качество : Высокий
Добавление ID3-тега : Нет
Утилита сжатия : C:\Program Files\Exact Audio Copy\Flac\flac.exe
Дополнительные параметры : -V -8 -T “Date=%year%” -T “Genre=%genre%” %source%

TOC извлечённого CD

Трек | Старт | Длительность | Начальный сектор | Конечный сектор
———————————————————————
1 | 0:00.00 | 4:25.33 | 0 | 19907
2 | 4:25.33 | 3:32.37 | 19908 | 35844
3 | 7:57.70 | 5:02.70 | 35845 | 58564
4 | 13:00.65 | 3:43.23 | 58565 | 75312
5 | 16:44.13 | 6:12.10 | 75313 | 103222
6 | 22:56.23 | 4:08.37 | 103223 | 121859
7 | 27:04.60 | 4:26.18 | 121860 | 141827
8 | 31:31.03 | 5:35.42 | 141828 | 166994
9 | 37:06.45 | 3:48.13 | 166995 | 184107
10 | 40:54.58 | 4:10.65 | 184108 | 202922

Характеристики диапазона извлечения и сообщения об ошибках

Выбранный диапазон

Имя файла C:\Program Files\Exact Audio Copy\Flac\Dio – Killing The Dragon.wav

Пиковый уровень 100.0 %
Скорость извлечения 6.9 X
Качество диапазона 100.0 %
CRC теста BC896AB6
CRC копии BC896AB6
Копирование… OK

Ошибок не произошло

AccurateRip: сводка

Трек 1 : извлечено точно (доверие 2) [2FE05462] (AR v1)
Трек 2 : извлечено точно (доверие 3) [C96C786D] (AR v1)
Трек 3 : извлечено точно (доверие 3) [4F0CD685] (AR v1)
Трек 4 : извлечено точно (доверие 3) [5F85A690] (AR v1)
Трек 5 : извлечено точно (доверие 3) [D2D7E331] (AR v1)
Трек 6 : извлечено точно (доверие 3) [80BFB08C] (AR v1)
Трек 7 : извлечено точно (доверие 2) [842DFC73] (AR v1)
Трек 8 : извлечено точно (доверие 3) [CDB480A9] (AR v1)
Трек 9 : извлечено точно (доверие 2) [364CD7E8] (AR v1)
Трек 10 : извлечено точно (доверие 2) [830D4574] (AR v1)

Все треки извлечены точно

Конец отчёта

==== Контрольная сумма отчёта 3D0DA112B9EE596D6691326F85B3C4F72B5BBB52C11E6947B1694B3D1D48222D ====

REM GENRE “Heavy Metal”
REM DATE 2002
REM DISCID 930A910A
REM COMMENT “ExactAudioCopy v1.0b3”
CATALOG 4988002433827
PERFORMER “Dio”
TITLE “Killing The Dragon”
FILE “Dio – Killing The Dragon.flac” WAVE
TRACK 01 AUDIO
TITLE “Killing The Dragon”
PERFORMER “Dio”
INDEX 01 00:00:00
TRACK 02 AUDIO
TITLE “Along Comes A Spider”
PERFORMER “Dio”
INDEX 01 04:25:33
TRACK 03 AUDIO
TITLE “Scream”
PERFORMER “Dio”
INDEX 00 07:57:46
INDEX 01 07:57:70
TRACK 04 AUDIO
TITLE “Better In The Dark”
PERFORMER “Dio”
INDEX 00 12:59:41
INDEX 01 13:00:65
TRACK 05 AUDIO
TITLE “Rock And Roll”
PERFORMER “Dio”
INDEX 00 16:42:06
INDEX 01 16:44:13
TRACK 06 AUDIO
TITLE “Push”
PERFORMER “Dio”
INDEX 01 22:56:23
TRACK 07 AUDIO
TITLE “Guilty”
PERFORMER “Dio”
INDEX 00 27:03:24
INDEX 01 27:04:60
TRACK 08 AUDIO
TITLE “Throw Away Children”
PERFORMER “Dio”
INDEX 00 31:30:19
INDEX 01 31:31:03
TRACK 09 AUDIO
TITLE “Before The Fall”
PERFORMER “Dio”
INDEX 00 37:05:09
INDEX 01 37:06:45
TRACK 10 AUDIO
TITLE “Cold Feet”
PERFORMER “Dio”
INDEX 00 40:54:04
INDEX 01 40:54:58


Spread the Download

Leave a Reply

Your email address will not be published. Required fields are marked *

Enter the text from the image below
 

This site uses Akismet to reduce spam. Learn how your comment data is processed.