Dio – Holy Diver




Artist: Dio
Year: 1983/1986
Genre: Metal
Notes: Discogs
Add. Notes:
Cover incl.: Yes
Encoder: FLAC
Bitrate: ~800 kBit/s (44.1 kHz/16 Bit/s)
Log & Cue incl.: Yes
Size: 272,18 MB
Password: “slam” (without ” “)


All Downloads/Hosters are compatible

Download 1
Turbobit.net
Rapidgator.net
KatFile.com
UploadRar.com
Download 2
Turbobit.net
Rapidgator.net
KatFile.com
UploadRar.com

Tracklist:

1 - Stand Up And Shout - 3:17
2 - Holy Diver - 5:50
3 - Gypsy - 3:35
4 - Caught In The Middle - 4:13
5 - Don't Talk To Strangers - 4:52
6 - Straight Though The Heart - 4:33
7 - Invisible - 5:24
8 - Rainbow In The Dark - 4:14
9 - Shame On The Night - 5:19

EAC-Log, CUE-Sheed & NFO:

Click to open spoiler
Exact Audio Copy V0.99 prebeta 5 from 4. May 2009

Отчёт EAC об извлечении, выполненном 13. января 2013, 17:43

Dio / Holy Diver

Дисковод: ASUS SDRW-08D2S-U Adapter: 2 ID: 0

Режим чтения : Достоверность
Использование точного потока : Да
Отключение кэша аудио : Да
Использование указателей C2 : Нет

Коррекция смещения при чтении : 103
Способность читать области Lead-in и Lead-out : Нет
Заполнение пропущенных сэмплов тишиной : Да
Удаление блоков с тишиной в начале и конце : Нет
При вычислениях CRC использовались нулевые сэмплы : Да
Интерфейс : Встроенный Win32-интерфейс для Win NT/2000

Выходной формат : Пользовательский кодировщик
Выбранный битрейт : 768 kBit/s
Качество : Высокий
Добавление ID3-тэга : Нет
Утилита сжатия : C:\Program Files\Exact Audio Copy\FLAC\FLAC.EXE
Дополнительные параметры : -8 -V %s

TOC извлечённого CD

Трек | Старт | Длительность | Начальный сектор | Конечный сектор
———————————————————————
1 | 0:00.33 | 3:18.27 | 33 | 14909
2 | 3:18.60 | 5:51.45 | 14910 | 41279
3 | 9:10.30 | 3:38.28 | 41280 | 57657
4 | 12:48.58 | 4:17.37 | 57658 | 76969
5 | 17:06.20 | 4:53.00 | 76970 | 98944
6 | 21:59.20 | 4:34.20 | 98945 | 119514
7 | 26:33.40 | 5:25.48 | 119515 | 143937
8 | 31:59.13 | 4:14.02 | 143938 | 162989
9 | 36:13.15 | 5:19.08 | 162990 | 186922

Характеристики диапазона извлечения и сообщения об ошибках

Выбранный диапазон

Имя файла D:\uTorrent.compl\1983 Holy Diver [1984 Mercury 811 021-2 W.Germany] 1st Press\Dio – Holy Diver.wav

Пиковый уровень 99.7 %
Качество диапазона 100.0 %
CRC теста 0D6FFA9B
CRC копии 0D6FFA9B
Копирование… OK

Ошибок не произошло

AccurateRip: сводка

Трек 1 точное извлечение (доверие 30) [C86E1D50]
Трек 2 точное извлечение (доверие 30) [F01E68FB]
Трек 3 точное извлечение (доверие 29) [E1584C22]
Трек 4 точное извлечение (доверие 29) [3D3AACD8]
Трек 5 точное извлечение (доверие 29) [D8C5E9F9]
Трек 6 точное извлечение (доверие 29) [29065583]
Трек 7 точное извлечение (доверие 28) [A486A899]
Трек 8 точное извлечение (доверие 29) [D46332E5]
Трек 9 точное извлечение (доверие 29) [27A19741]

Все треки извлечены точно

Конец отчёта

REM GENRE “Heavy Metal”
REM DATE 1983
REM DISCID 6009BC09
REM COMMENT “ExactAudioCopy v0.99pb5”
PERFORMER “Dio”
TITLE “Holy Diver”
FILE “Dio – Holy Diver.flac” WAVE
TRACK 01 AUDIO
TITLE “Stand Up And Shout”
PERFORMER “Dio”
INDEX 00 00:00:00
INDEX 01 00:00:33
TRACK 02 AUDIO
TITLE “Holy Diver”
PERFORMER “Dio”
INDEX 00 03:17:35
INDEX 01 03:18:60
TRACK 03 AUDIO
TITLE “Gypsy”
PERFORMER “Dio”
INDEX 00 09:09:13
INDEX 01 09:10:30
TRACK 04 AUDIO
TITLE “Caught In The Middle”
PERFORMER “Dio”
INDEX 00 12:45:53
INDEX 01 12:48:58
TRACK 05 AUDIO
TITLE “Don’t Talk To Strangers”
PERFORMER “Dio”
INDEX 00 17:02:45
INDEX 01 17:06:20
TRACK 06 AUDIO
TITLE “Straight Through The Heart”
PERFORMER “Dio”
INDEX 00 21:58:23
INDEX 01 21:59:20
TRACK 07 AUDIO
TITLE “Invisible”
PERFORMER “Dio”
INDEX 00 26:32:28
INDEX 01 26:33:40
TRACK 08 AUDIO
TITLE “Rainbow In The Dark”
PERFORMER “Dio”
INDEX 00 31:57:40
INDEX 01 31:59:13
TRACK 09 AUDIO
TITLE “Shame On The Night”
PERFORMER “Dio”
INDEX 01 36:13:15


Leave a Reply

Your email address will not be published. Required fields are marked *

Enter the text from the image below
 

This site uses Akismet to reduce spam. Learn how your comment data is processed.