Dio – Holy Diver (Remastered)




[Total: 0    Average: 0/5]

Artist: Dio
Year: 1983/2005
Genre: Metal
Notes: Discogs
Add. Notes: Remastered
Cover incl.: Yes
Encoder: FLAC
Bitrate: ~700 kBit/s (44.1 kHz/16 Bit/s)
Log & Cue incl.: Yes
Size: 349 MB
Password: “slam” (without ” “)


All Downloads/Hosters are compatible

Download 1
Share-online.biz
KatFile.com
Rapidgator.net
Mexa.sh
Download 2
Share-online.biz
KatFile.com
Rapidgator.net
Mexa.sh

Tracklist:

1 - Stand Up And Shout - 3:17
2 - Holy Diver - 5:41
3 - Gypsy - 3:40
4 - Caught In The Middle - 4:11
5 - Don't Talk To Strangers - 4:52
6 - Straight Through The Heart - 
4:33
7 - Invisible - 5:20
8 - Rainbow In The Dark - 4:13
9 - Shame On The Night - 5:31
 
Bonus Material
10 - Ronnie James Dio Audio 
Interview (2005) - 4:28
11 - Ronnie James Dio Audio 
Interview (2005) - 2:17
12 - Ronnie James Dio Audio 
Interview (2005) - 3:14
13 - Ronnie James Dio Audio 
Interview (2005) - 0:32
14 - Ronnie James Dio Audio 
Interview (2005) - 0:48
15 - Ronnie James Dio Audio 
Interview (2005) - 0:55
16 - Ronnie James Dio Audio 
Interview (2005) - 2:08
17 - Ronnie James Dio Audio 
Interview (2005) - 2:42
18 - Ronnie James Dio Audio 
Interview (2005) - 16:21
19 - Ronnie James Dio Audio 
Interview (2005)

EAC-Log, CUE-Sheed & NFO:

Click to open spoiler
Exact Audio Copy V1.0 beta 3 from 29. August 2011

Отчёт EAC об извлечении, выполненном 5. сентября 2012, 22:45

Dio / Holy Diver (Collectors Edition 2005 – Remastered)

Дисковод: HL-DT-STDVDRAM GH20NS10 Adapter: 4 ID: 0

Режим чтения : Достоверность
Использование точного потока : Да
Отключение кэша аудио : Да
Использование указателей C2 : Нет

Коррекция смещения при чтении : 667
Способность читать области Lead-in и Lead-out : Нет
Заполнение пропущенных сэмплов тишиной : Да
Удаление блоков с тишиной в начале и конце : Нет
При вычислениях CRC использовались нулевые сэмплы : Да
Интерфейс : Встроенный Win32-интерфейс для Win NT/2000

Выходной формат : Внутренние WAV-операции
Формат сэмплов : 44.100 Гц; 16 бит; стерео

TOC извлечённого CD

Трек | Старт | Длительность | Начальный сектор | Конечный сектор
———————————————————————
1 | 0:00.00 | 3:17.47 | 0 | 14821
2 | 3:17.47 | 5:40.48 | 14822 | 40369
3 | 8:58.20 | 3:39.56 | 40370 | 56850
4 | 12:38.01 | 4:11.55 | 56851 | 75730
5 | 16:49.56 | 4:52.15 | 75731 | 97645
6 | 21:41.71 | 4:32.18 | 97646 | 118063
7 | 26:14.14 | 5:20.29 | 118064 | 142092
8 | 31:34.43 | 4:12.52 | 142093 | 161044
9 | 35:47.20 | 5:30.73 | 161045 | 185867
10 | 41:18.18 | 4:27.39 | 185868 | 205931
11 | 45:45.57 | 2:17.36 | 205932 | 216242
12 | 48:03.18 | 3:13.45 | 216243 | 230762
13 | 51:16.63 | 0:32.24 | 230763 | 233186
14 | 51:49.12 | 0:48.27 | 233187 | 236813
15 | 52:37.39 | 0:55.34 | 236814 | 240972
16 | 53:32.73 | 2:08.30 | 240973 | 250602
17 | 55:41.28 | 2:42.18 | 250603 | 262770
18 | 58:23.46 | 16:21.05 | 262771 | 336350
19 | 74:44.51 | 1:34.62 | 336351 | 343462

Характеристики диапазона извлечения и сообщения об ошибках

Выбранный диапазон

Имя файла F:\ЕАС\Dio – Holy Diver (Collectors Edition 2005 – Remastered).wav

Пиковый уровень 99.7 %
Скорость извлечения 8.2 X
Качество диапазона 100.0 %
CRC теста 21D6C384
CRC копии 21D6C384
Копирование… OK

Ошибок не произошло

AccurateRip: сводка

Трек 1 : извлечено точно (доверие 27) [B5BF0990] (AR v2)
Трек 2 : извлечено точно (доверие 28) [168BED4A] (AR v2)
Трек 3 : извлечено точно (доверие 27) [0717704C] (AR v2)
Трек 4 : извлечено точно (доверие 27) [5BF171C4] (AR v2)
Трек 5 : извлечено точно (доверие 27) [635A7C53] (AR v2)
Трек 6 : извлечено точно (доверие 27) [A8083613] (AR v2)
Трек 7 : извлечено точно (доверие 27) [68561874] (AR v2)
Трек 8 : извлечено точно (доверие 27) [FBEA0944] (AR v2)
Трек 9 : извлечено точно (доверие 27) [34BF974A] (AR v2)
Трек 10 : извлечено точно (доверие 18) [B896C590] (AR v2)
Трек 11 : извлечено точно (доверие 18) [02198B6D] (AR v2)
Трек 12 : извлечено точно (доверие 18) [00A2BFB5] (AR v2)
Трек 13 : извлечено точно (доверие 18) [D24F6278] (AR v2)
Трек 14 : извлечено точно (доверие 18) [0AC5427F] (AR v2)
Трек 15 : извлечено точно (доверие 18) [9E236CB4] (AR v2)
Трек 16 : извлечено точно (доверие 18) [D05A71E0] (AR v2)
Трек 17 : извлечено точно (доверие 18) [5B7887C0] (AR v2)
Трек 18 : извлечено точно (доверие 18) [A592A402] (AR v2)
Трек 19 : извлечено точно (доверие 18) [4B26205B] (AR v2)

Все треки извлечены точно

Конец отчёта

==== Контрольная сумма отчёта 90C7A18303A95537B69EA350F54B5130CCA002E54E6DE1A83F400879B6DF7527 ====

REM GENRE “Heavy Metal”
REM DATE 1983
REM DISCID 0E11E313
REM COMMENT “ExactAudioCopy v1.0b3”
PERFORMER “Dio”
TITLE “Holy Diver (Collectors Edition 2005 – Remastered)”
FILE “Dio – Holy Diver (Collectors Edition 2005 – Remastered).flac” WAVE
TRACK 01 AUDIO
TITLE “Stand Up And Shout”
PERFORMER “Dio”
INDEX 01 00:00:00
TRACK 02 AUDIO
TITLE “Holy Diver”
PERFORMER “Dio”
INDEX 00 03:16:73
INDEX 01 03:17:47
TRACK 03 AUDIO
TITLE “Gypsy”
PERFORMER “Dio”
INDEX 01 08:58:20
TRACK 04 AUDIO
TITLE “Caught In The Middle”
PERFORMER “Dio”
INDEX 01 12:38:01
TRACK 05 AUDIO
TITLE “Don`t Talk To Strangers”
PERFORMER “Dio”
INDEX 01 16:49:56
TRACK 06 AUDIO
TITLE “Straight Through the Heart”
PERFORMER “Dio”
INDEX 00 21:40:62
INDEX 01 21:41:71
TRACK 07 AUDIO
TITLE “Invisible”
PERFORMER “Dio”
INDEX 00 26:13:46
INDEX 01 26:14:14
TRACK 08 AUDIO
TITLE “Rainbow In The Dark”
PERFORMER “Dio”
INDEX 01 31:34:43
TRACK 09 AUDIO
TITLE “Shame On The Night”
PERFORMER “Dio”
INDEX 01 35:47:20
TRACK 10 AUDIO
TITLE “Audio-Interview 2005 – Forming Own Band”
PERFORMER “Dio”
INDEX 00 41:06:41
INDEX 01 41:18:18
TRACK 11 AUDIO
TITLE “Audio-Interview 2005 – Vinnie Appice Leaving Sabbath”
PERFORMER “Dio”
INDEX 00 45:42:65
INDEX 01 45:45:57
TRACK 12 AUDIO
TITLE “Audio-Interview 2005 – Seeking Out A Guitarist”
PERFORMER “Dio”
INDEX 00 47:59:71
INDEX 01 48:03:18
TRACK 13 AUDIO
TITLE “Audio-Interview 2005 – Working In London”
PERFORMER “Dio”
INDEX 00 51:13:17
INDEX 01 51:16:63
TRACK 14 AUDIO
TITLE “Audio-Interview 2005 – Release Timing Of Holy Diver”
PERFORMER “Dio”
INDEX 00 51:46:05
INDEX 01 51:49:12
TRACK 15 AUDIO
TITLE “Audio-Interview 2005 – Writing While With Sabbath”
PERFORMER “Dio”
INDEX 00 52:34:14
INDEX 01 52:37:39
TRACK 16 AUDIO
TITLE “Audio-Interview 2005 – Album Concept”
PERFORMER “Dio”
INDEX 00 53:29:69
INDEX 01 53:32:73
TRACK 17 AUDIO
TITLE “Audio-Interview 2005 – Producing The Album Himself”
PERFORMER “Dio”
INDEX 00 55:38:30
INDEX 01 55:41:28
TRACK 18 AUDIO
TITLE “Audio-Interview 2005 – Remembering The Tracks”
PERFORMER “Dio”
INDEX 00 58:20:24
INDEX 01 58:23:46
TRACK 19 AUDIO
TITLE “Audio-Interview 2005 – Artwork”
PERFORMER “Dio”
INDEX 00 74:41:20
INDEX 01 74:44:51


Spread the Download

Leave a Reply

Your email address will not be published. Required fields are marked *

Enter the text from the image below
 

This site uses Akismet to reduce spam. Learn how your comment data is processed.