Dio – Holy Diver (Remastered)




Artist: Dio
Year: 1983/1994
Genre: Rock
Notes: Discogs
Add. Notes: Remastered
Cover incl.: Yes
Encoder: FLAC
Bitrate: ~800 kBit/s (44.1 kHz/16 Bit/s)
Log & Cue incl.: Yes
Size: 288 MB
Password: “slam” (without ” “)


All Downloads/Hosters are compatible

Download 1
KatFile.com
Turbobit.net
FileFactory.com
Rapidgator.net
Download 2
KatFile.com
Turbobit.net
FileFactory.com
Rapidgator.net

Tracklist:

1 - Stand Up And Shout - 3:15
2 - Holy Diver - 5:54
3 - Gypsy - 3:39
4 - Caught In The Middle - 4:15
5 - Don't Talk To Strangers - 4:53
6 - Straight Through The Heart - 
4:32
7 - Invisible - 5:26
8 - Rainbow In The Dark - 4:15
9 - Shame On The Night - 5:20

EAC-Log, CUE-Sheed & NFO:

Click to open spoiler
Exact Audio Copy V1.0 beta 3 from 29. August 2011

EAC extraction logfile from 3. March 2013, 11:00

Dio / Holy Diver

Used drive : hp CDDVDW TS-U633J Adapter: 0 ID: 1

Read mode : Secure
Utilize accurate stream : Yes
Defeat audio cache : Yes
Make use of C2 pointers : No

Read offset correction : 6
Overread into Lead-In and Lead-Out : No
Fill up missing offset samples with silence : Yes
Delete leading and trailing silent blocks : No
Null samples used in CRC calculations : Yes
Used interface : Native Win32 interface for Win NT & 2000

Used output format : Internal WAV Routines
Sample format : 44.100 Hz; 16 Bit; Stereo

TOC of the extracted CD

Track | Start | Length | Start sector | End sector
———————————————————
1 | 0:00.32 | 3:18.13 | 32 | 14894
2 | 3:18.45 | 5:55.00 | 14895 | 41519
3 | 9:13.45 | 3:40.42 | 41520 | 58061
4 | 12:54.12 | 4:17.40 | 58062 | 77376
5 | 17:11.52 | 4:54.45 | 77377 | 99471
6 | 22:06.22 | 4:34.65 | 99472 | 120086
7 | 26:41.12 | 5:26.10 | 120087 | 144546
8 | 32:07.22 | 4:14.18 | 144547 | 163614
9 | 36:21.40 | 5:18.62 | 163615 | 187526

Range status and errors

Selected range

Filename C:\Music\Dio – Holy Diver (Warner Bros. 9 23836-2)\Dio – Holy Diver.wav

Peak level 92.7 %
Extraction speed 1.7 X
Range quality 100.0 %
Test CRC 2634ED14
Copy CRC 2634ED14
Copy OK

No errors occurred

AccurateRip summary

Track 1 accurately ripped (confidence 9) [582990E1] (AR v2)
Track 2 accurately ripped (confidence 9) [2FD0B7DF] (AR v2)
Track 3 accurately ripped (confidence 9) [F73088CF] (AR v2)
Track 4 accurately ripped (confidence 9) [E8634E72] (AR v2)
Track 5 accurately ripped (confidence 9) [566023FB] (AR v2)
Track 6 accurately ripped (confidence 9) [21453F25] (AR v2)
Track 7 accurately ripped (confidence 9) [5E68C9DA] (AR v2)
Track 8 accurately ripped (confidence 9) [A96212EC] (AR v2)
Track 9 accurately ripped (confidence 9) [E76F4A01] (AR v2)

All tracks accurately ripped

End of status report

—- CUETools DB Plugin V2.1.3

[CTDB TOCID: ibLkRpOypJ56i7DoIfW_Tuc5VZg-] found, Submit result: discs with pregaps not supported in this protocol version
[ccc1345c] (60/60) Differs in 240 samples @00:00:42
You can use CUETools to repair this rip.

REM GENRE “Heavy Metal”
REM DATE 1983
REM DISCID 6909C409
REM COMMENT “ExactAudioCopy v1.0b3”
PERFORMER “Dio”
TITLE “Holy Diver”
FILE “Dio – Holy Diver.wav” WAVE
TRACK 01 AUDIO
TITLE “Stand Up And Shout”
PERFORMER “Dio”
INDEX 00 00:00:00
INDEX 01 00:00:32
TRACK 02 AUDIO
TITLE “Holy Diver”
PERFORMER “Dio”
INDEX 00 03:17:25
INDEX 01 03:18:45
TRACK 03 AUDIO
TITLE “Gypsy”
PERFORMER “Dio”
INDEX 00 09:13:02
INDEX 01 09:13:45
TRACK 04 AUDIO
TITLE “Caught In The Middle”
PERFORMER “Dio”
INDEX 00 12:51:52
INDEX 01 12:54:12
TRACK 05 AUDIO
TITLE “Don’t Talk To Strangers”
PERFORMER “Dio”
INDEX 00 17:08:55
INDEX 01 17:11:52
TRACK 06 AUDIO
TITLE “Straight Through The Heart”
PERFORMER “Dio”
INDEX 00 22:03:67
INDEX 01 22:06:22
TRACK 07 AUDIO
TITLE “Invisible”
PERFORMER “Dio”
INDEX 00 26:38:17
INDEX 01 26:41:12
TRACK 08 AUDIO
TITLE “Rainbow In The Dark”
PERFORMER “Dio”
INDEX 00 32:05:65
INDEX 01 32:07:22
TRACK 09 AUDIO
TITLE “Shame On The Night”
PERFORMER “Dio”
INDEX 00 36:21:15
INDEX 01 36:21:40


Leave a Reply

Your email address will not be published. Required fields are marked *

Enter the text from the image below
 

This site uses Akismet to reduce spam. Learn how your comment data is processed.