Dio – Holy Diver (Remastered Japanese Edition)




Artist: Dio
Year: 1983/2002
Genre: Metal
Notes: Discogs
Add. Notes: Remastered Japanese Edition
Cover incl.: Yes
Encoder: FLAC
Bitrate: ~900 kBit/s (44.1 kHz/16 Bit/s)
Log & Cue incl.: Yes
Size: 274 MB
Password: “slam” (without ” “)


All Downloads/Hosters are compatible

Download 1
KatFile.com
Turbobit.net
FileFactory.com
Rapidgator.net
Download 2
KatFile.com
Turbobit.net
FileFactory.com
Rapidgator.net

Tracklist:

1 - Stand Up And Shout - 3:16
2 - Holy Diver - 5:50
3 - Gypsy - 3:35
4 - Caught In The Middle - 4:13
5 - Don't Talk To Strangers - 4:51
6 - Straight Through The Heart - 
4:31
7 - Invisible - 5:23
8 - Rainbow In The Dark - 4:15
9 - Shame On The Night - 5:17

EAC-Log, CUE-Sheed & NFO:

Click to open spoiler
Exact Audio Copy V1.0 beta 3 from 29. August 2011

EAC extraction logfile from 12. March 2015, 11:41

Dio / Holy Diver[2002 Japan]

Used drive : PLEXTOR CD-R PREMIUM Adapter: 3 ID: 0

Read mode : Secure
Utilize accurate stream : Yes
Defeat audio cache : Yes
Make use of C2 pointers : No

Read offset correction : 30
Overread into Lead-In and Lead-Out : No
Fill up missing offset samples with silence : Yes
Delete leading and trailing silent blocks : No
Null samples used in CRC calculations : Yes
Used interface : Native Win32 interface for Win NT & 2000

Used output format : User Defined Encoder
Selected bitrate : 1024 kBit/s
Quality : High
Add ID3 tag : Yes
Command line compressor : C:\Program Files\EZ CD Audio Converter\ezcd.exe
Additional command line options : -V -8 -T “Date=%year%” -T “Genre=%genre%” %source%

TOC of the extracted CD

Track | Start | Length | Start sector | End sector
———————————————————
1 | 0:00.00 | 3:18.17 | 0 | 14866
2 | 3:18.17 | 5:55.08 | 14867 | 41499
3 | 9:13.25 | 3:41.05 | 41500 | 58079
4 | 12:54.30 | 4:17.52 | 58080 | 77406
5 | 17:12.07 | 4:53.48 | 77407 | 99429
6 | 22:05.55 | 4:35.05 | 99430 | 120059
7 | 26:40.60 | 5:26.22 | 120060 | 144531
8 | 32:07.07 | 4:14.38 | 144532 | 163619
9 | 36:21.45 | 5:18.62 | 163620 | 187531

Range status and errors

Selected range

Filename C:\Users\Public\Music\Dio – Holy Diver(2002 Japan UICY-3727)\Dio – Holy Diver[2002 Japan].wav

Peak level 100.0 %
Extraction speed 5.3 X
Range quality 100.0 %
Test CRC 2DDC5E3E
Copy CRC 2DDC5E3E
Copy OK

No errors occurred

AccurateRip summary

Track 1 accurately ripped (confidence 3) [2AF41E7E] (AR v2)
Track 2 accurately ripped (confidence 3) [C1AD9537] (AR v2)
Track 3 accurately ripped (confidence 3) [62DC0863] (AR v2)
Track 4 accurately ripped (confidence 3) [8A5C8373] (AR v2)
Track 5 accurately ripped (confidence 3) [D62C5494] (AR v2)
Track 6 accurately ripped (confidence 3) [45D17AF3] (AR v2)
Track 7 accurately ripped (confidence 3) [9F722A77] (AR v2)
Track 8 accurately ripped (confidence 3) [50C67F1A] (AR v2)
Track 9 accurately ripped (confidence 3) [1FF0ED2F] (AR v2)

All tracks accurately ripped

End of status report

==== Log checksum FDBA51C76F9A5B7C5103CAA8AEE606B5CF5679F8085A8259CDDD6190664406D6 ====

REM GENRE “Heavy Metal”
REM DATE 1983
REM DISCID 6809C409
REM COMMENT “ExactAudioCopy v1.0b3”
PERFORMER “Dio”
TITLE “Holy Diver[2002 Japan]”
FILE “Dio – Holy Diver[2002 Japan].flac” WAVE
TRACK 01 AUDIO
TITLE “Stand Up And Shout”
PERFORMER “Dio”
INDEX 01 00:00:00
TRACK 02 AUDIO
TITLE “Holy Diver”
PERFORMER “Dio”
INDEX 00 03:16:62
INDEX 01 03:18:17
TRACK 03 AUDIO
TITLE “Gypsy”
PERFORMER “Dio”
INDEX 00 09:11:52
INDEX 01 09:13:25
TRACK 04 AUDIO
TITLE “Caught In The Middle”
PERFORMER “Dio”
INDEX 00 12:52:15
INDEX 01 12:54:30
TRACK 05 AUDIO
TITLE “Don’t Talk To Strangers”
PERFORMER “Dio”
INDEX 00 17:09:17
INDEX 01 17:12:07
TRACK 06 AUDIO
TITLE “Straight Through The Heart”
PERFORMER “Dio”
INDEX 00 22:04:35
INDEX 01 22:05:55
TRACK 07 AUDIO
TITLE “Invisible”
PERFORMER “Dio”
INDEX 00 26:37:32
INDEX 01 26:40:60
TRACK 08 AUDIO
TITLE “Rainbow In The Dark”
PERFORMER “Dio”
INDEX 00 32:06:12
INDEX 01 32:07:07
TRACK 09 AUDIO
TITLE “Shame On The Night”
PERFORMER “Dio”
INDEX 01 36:21:45


Leave a Reply

Your email address will not be published. Required fields are marked *

This site uses Akismet to reduce spam. Learn how your comment data is processed.