Dio – Holy Diver (Remastered Deluxe Edition)




Artist: Dio
Year: 1983/2012
Genre: Metal
Notes: Discogs
Add. Notes: Remastered Deluxe Edition
Cover incl.: Yes
Encoder: FLAC
Bitrate: ~900 kBit/s (44.1 kHz/16 Bit/s)
Log & Cue incl.: Yes
Size: 721,23 MB
Password: “slam” (without ” “)


All Downloads/Hosters are compatible

Download 1
Turbobit.net
Rapidgator.net
KatFile.com
UploadRar.com
Download 2
Turbobit.net
Rapidgator.net
KatFile.com
UploadRar.com

Tracklist:

Holy Diver (1983)
1-1 - Stand Up And Shout - 3:18
1-2 - Holy Diver - 5:50
1-3 - Gypsy - 3:37
1-4 - Caught In The Middle - 4:14
1-5 - Don't Talk To Strangers - 4:52
1-6 - Straight Through The Heart - 4:32
1-7 - Invisible - 5:22
1-8 - Rainbow In The Dark - 4:14
1-9 - Shame On The Night - 5:17
Bonus Tracks
2-1 - Evil Eyes (B-Side Of Holy Diver) - 3:46
2-2 - Stand Up And Shout (Live B-Side Of Rainbow In The 
Dark) - 4:13
2-3 - Straight Through The Heart (Live B-Side Of Rainbow 
In The Dark) - 4:36
King Biscuit Flower Hour 30th October 1983
2-4 - Stand Up And Shout - 3:38
2-5 - Shame On The Night - 5:20
2-6 - Children Of The Sea - 6:15
2-7 - Holy Diver - 5:57
2-8 - Rainbow In The Dark - 5:14
2-9 - Man On The Silver Mountain - 6:51

EAC-Log, CUE-Sheed & NFO:

Click to open spoiler
Exact Audio Copy V1.0 beta 3 from 29. August 2011

EAC extraction logfile from 5. February 2013, 6:56

Dio / Holy Diver (2012, Deluxe Expanded Edition, Disc 1)

Used drive : TEAC DV-W28EA Adapter: 0 ID: 1

Read mode : Secure
Utilize accurate stream : Yes
Defeat audio cache : Yes
Make use of C2 pointers : No

Read offset correction : 102
Overread into Lead-In and Lead-Out : No
Fill up missing offset samples with silence : Yes
Delete leading and trailing silent blocks : No
Null samples used in CRC calculations : Yes
Used interface : Native Win32 interface for Win NT & 2000

Used output format : Internal WAV Routines
Sample format : 44.100 Hz; 16 Bit; Stereo

TOC of the extracted CD

Track | Start | Length | Start sector | End sector
———————————————————
1 | 0:00.00 | 3:18.07 | 0 | 14856
2 | 3:18.07 | 5:50.28 | 14857 | 41134
3 | 9:08.35 | 3:36.53 | 41135 | 57387
4 | 12:45.13 | 4:13.51 | 57388 | 76413
5 | 16:58.64 | 4:51.72 | 76414 | 98310
6 | 21:50.61 | 4:31.47 | 98311 | 118682
7 | 26:22.33 | 5:22.14 | 118683 | 142846
8 | 31:44.47 | 4:13.74 | 142847 | 161895
9 | 35:58.46 | 5:16.74 | 161896 | 185669

Range status and errors

Selected range

Filename F:\bigggwest\Dio – Holy Diver (2012, Deluxe Expanded Edition, Disc 1).wav

Peak level 97.0 %
Extraction speed 3.7 X
Range quality 100.0 %
Test CRC 554787C9
Copy CRC 554787C9
Copy OK

No errors occurred

AccurateRip summary

Track 1 accurately ripped (confidence 2) [EE9A3D84] (AR v2)
Track 2 accurately ripped (confidence 2) [170750DA] (AR v2)
Track 3 accurately ripped (confidence 2) [FCCEFB75] (AR v2)
Track 4 accurately ripped (confidence 2) [831D5B09] (AR v2)
Track 5 accurately ripped (confidence 2) [E1B4B301] (AR v2)
Track 6 accurately ripped (confidence 2) [2E40C883] (AR v2)
Track 7 accurately ripped (confidence 2) [8D6D1AC4] (AR v2)
Track 8 accurately ripped (confidence 2) [AA1933F3] (AR v2)
Track 9 accurately ripped (confidence 2) [F061A8AC] (AR v2)

All tracks accurately ripped

End of status report

==== Log checksum 915EFC5A2DE06CF5419347208198EE6302B0502581A7A38B6E3C71E1244A2662 ====

Exact Audio Copy V1.0 beta 3 from 29. August 2011

EAC extraction logfile from 5. February 2013, 7:29

Dio / Holy Diver (2012, Deluxe Expanded Edition, Disc 2)

Used drive : TEAC DV-W28EA Adapter: 0 ID: 1

Read mode : Secure
Utilize accurate stream : Yes
Defeat audio cache : Yes
Make use of C2 pointers : No

Read offset correction : 102
Overread into Lead-In and Lead-Out : No
Fill up missing offset samples with silence : Yes
Delete leading and trailing silent blocks : No
Null samples used in CRC calculations : Yes
Used interface : Native Win32 interface for Win NT & 2000

Used output format : Internal WAV Routines
Sample format : 44.100 Hz; 16 Bit; Stereo

TOC of the extracted CD

Track | Start | Length | Start sector | End sector
———————————————————
1 | 0:00.00 | 3:46.05 | 0 | 16954
2 | 3:46.05 | 4:13.20 | 16955 | 35949
3 | 7:59.25 | 4:35.67 | 35950 | 56641
4 | 12:35.17 | 3:37.63 | 56642 | 72979
5 | 16:13.05 | 5:19.38 | 72980 | 96942
6 | 21:32.43 | 6:14.43 | 96943 | 125035
7 | 27:47.11 | 5:57.07 | 125036 | 151817
8 | 33:44.18 | 5:14.35 | 151818 | 175402
9 | 38:58.53 | 6:50.38 | 175403 | 206190

Range status and errors

Selected range

Filename F:\bigggwest\Dio – Holy Diver (2012, Deluxe Expanded Edition, Disc 2).wav

Peak level 97.0 %
Extraction speed 3.8 X
Range quality 100.0 %
Test CRC 68E12CAA
Copy CRC 68E12CAA
Copy OK

No errors occurred

AccurateRip summary

Track 1 accurately ripped (confidence 3) [7AD497B6] (AR v2)
Track 2 accurately ripped (confidence 3) [7481128F] (AR v2)
Track 3 accurately ripped (confidence 3) [CDCC5533] (AR v2)
Track 4 accurately ripped (confidence 3) [5F86A238] (AR v2)
Track 5 accurately ripped (confidence 3) [287949D4] (AR v2)
Track 6 accurately ripped (confidence 3) [2E6F35E8] (AR v2)
Track 7 accurately ripped (confidence 3) [4F9CAB32] (AR v2)
Track 8 accurately ripped (confidence 3) [579A6346] (AR v2)
Track 9 accurately ripped (confidence 3) [6BDF7E84] (AR v2)

All tracks accurately ripped

End of status report

==== Log checksum EB21A20D076EAA0535771FC726357177B2A28F6492BD25A49064681A63055EF1 ====

REM GENRE “Heavy Metal”
REM DATE 1983
REM DISCID 5709AB09
REM COMMENT “ExactAudioCopy v1.0b3”
CATALOG 0600753378373
PERFORMER “Dio”
TITLE “Holy Diver (2012, Deluxe Expanded Edition, Disc 1)”
FILE “Dio – Holy Diver (2012, Deluxe Expanded Edition, Disc 1).flac” WAVE
TRACK 01 AUDIO
TITLE “Stand Up And Shout”
PERFORMER “Dio”
ISRC GE9088390136
INDEX 01 00:00:00
TRACK 02 AUDIO
TITLE “Holy Diver”
PERFORMER “Dio”
ISRC NGa050390016
INDEX 00 03:16:59
INDEX 01 03:18:07
TRACK 03 AUDIO
TITLE “Gypsy”
PERFORMER “Dio”
ISRC NGa050590029
INDEX 00 09:08:08
INDEX 01 09:08:35
TRACK 04 AUDIO
TITLE “Caught In The Middle”
PERFORMER “Dio”
ISRC NGa050590030
INDEX 00 12:43:09
INDEX 01 12:45:13
TRACK 05 AUDIO
TITLE “Don’t Talk To Strangers”
PERFORMER “Dio”
ISRC GE9080300552
INDEX 00 16:57:27
INDEX 01 16:58:64
TRACK 06 AUDIO
TITLE “Straight Through The Heart”
PERFORMER “Dio”
ISRC GE9080400102
INDEX 00 21:49:66
INDEX 01 21:50:61
TRACK 07 AUDIO
TITLE “Invisible”
PERFORMER “Dio”
ISRC NGa050590031
INDEX 00 26:21:30
INDEX 01 26:22:33
TRACK 08 AUDIO
TITLE “Rainbow In The Dark”
PERFORMER “Dio”
ISRC GE9080300553
INDEX 00 31:44:08
INDEX 01 31:44:47
TRACK 09 AUDIO
TITLE “Shame On The Night”
PERFORMER “Dio”
ISRC NGa050590032
INDEX 01 35:58:46

REM GENRE “Heavy Metal”
REM DATE 1983
REM DISCID 7C0ABD09
REM COMMENT “ExactAudioCopy v1.0b3”
CATALOG 0600753378366
PERFORMER “Dio”
TITLE “Holy Diver (2012, Deluxe Expanded Edition, Disc 2)”
FILE “Dio – Holy Diver (2012, Deluxe Expanded Edition, Disc 2).flac” WAVE
TRACK 01 AUDIO
TITLE “Evil Eyes (B-Side of Holy Diver)”
PERFORMER “Dio”
ISRC NGa050490180
INDEX 01 00:00:00
TRACK 02 AUDIO
TITLE “Stand Up And Shout (Live B-Side of Rainbow In The Dark)”
PERFORMER “Dio”
ISRC GE:M71200565
INDEX 00 03:43:43
INDEX 01 03:46:05
TRACK 03 AUDIO
TITLE “Straight Through The Heart (Live B-Side of Rainbow In The Dark)”
PERFORMER “Dio”
ISRC GE:M71200566
INDEX 00 07:58:02
INDEX 01 07:59:25
TRACK 04 AUDIO
TITLE “Stand Up And Shout (LIVE ON KING BISCUIT FLOWER HOUR 30th OCTOBER1983)”
PERFORMER “Dio”
ISRC GE:M71200368
INDEX 00 12:32:54
INDEX 01 12:35:17
TRACK 05 AUDIO
TITLE “Shame On The Night (LIVE ON KING BISCUIT FLOWER HOUR 30th OCTOBER1983)”
PERFORMER “Dio”
ISRC GE:M71200369
INDEX 01 16:13:05
TRACK 06 AUDIO
TITLE “Children Of The Sea (LIVE ON KING BISCUIT FLOWER HOUR 30th OCTOBER1983)”
PERFORMER “Dio”
ISRC GE:M71200370
INDEX 01 21:32:43
TRACK 07 AUDIO
TITLE “Holy Diver (LIVE ON KING BISCUIT FLOWER HOUR 30th OCTOBER1983)”
PERFORMER “Dio”
ISRC GE:M71200372
INDEX 00 27:46:67
INDEX 01 27:47:11
TRACK 08 AUDIO
TITLE “Rainbow In The Dark (LIVE ON KING BISCUIT FLOWER HOUR 30th OCTOBER1983)”
PERFORMER “Dio”
ISRC GE:M71200373
INDEX 01 33:44:18
TRACK 09 AUDIO
TITLE “Man On The Silver Mountain (LIVE ON KING BISCUIT FLOWER HOUR 30th OCTOBER1983)”
PERFORMER “Dio”
ISRC GE:M71200374
INDEX 01 38:58:53


Leave a Reply

Your email address will not be published. Required fields are marked *

This site uses Akismet to reduce spam. Learn how your comment data is processed.