Dio – Holy Diver Live (Japanese Edition)




Artist: Dio
Year: 2006
Genre: Metal
Notes: Discogs
Add. Notes: Japanese Edition
Cover incl.: Yes
Encoder: FLAC
Bitrate: ~900 kBit/s (44.1 kHz/16 Bit/s)
Log & Cue incl.: Yes
Size: 775,2 MB
Password: “slam” (without ” “)


All Downloads/Hosters are compatible

Download 1
KatFile.com
Turbobit.net
FileFactory.com
Rapidgator.net
Download 2
KatFile.com
Turbobit.net
FileFactory.com
Rapidgator.net

Tracklist:

1-1 Stand Up And Shout 
1-2 Holy Diver 
1-3 Gypsy 
1-4 Caught In The Middle 
1-5 Don't Talk To Strangers 
1-6 Straight Through The Heart 
1-7 Invisible 
1-8 Rainbow In The Dark 
1-9 Shame On The Night 
2-1 Tarot Woman 
2-2 Sign Of The Southern Cross 
2-3 One Night In The City 
2-4 Gates Of Babylon 
2-5 Heaven & Hell 
2-6 Man On The Silver Mountain 
2-7 Long Live Rock 'N' Roll 
2-8 We Rock

EAC-Log, CUE-Sheed & NFO:

Click to open spoiler
Exact Audio Copy V1.0 beta 3 from 29. August 2011

Отчёт EAC об извлечении, выполненном 26. марта 2013, 19:34

Dio / Holy Diver Live CD1

Дисковод: SONY DVD RW DRU-190S Adapter: 3 ID: 0

Режим чтения : Достоверность
Использование точного потока : Да
Отключение кэша аудио : Да
Использование указателей C2 : Нет

Коррекция смещения при чтении : 6
Способность читать области Lead-in и Lead-out : Нет
Заполнение пропущенных сэмплов тишиной : Да
Удаление блоков с тишиной в начале и конце : Нет
При вычислениях CRC использовались нулевые сэмплы : Да
Интерфейс : Встроенный Win32-интерфейс для Win NT/2000

Выходной формат : Пользовательский кодировщик
Выбранный битрейт : 768 kBit/s
Качество : Высокий
Добавление ID3-тега : Нет
Утилита сжатия : C:\Program Files\Exact Audio Copy\Flac\flac.exe
Дополнительные параметры : -V -8 -T “Date=%year%” -T “Genre=%genre%” %source%

TOC извлечённого CD

Трек | Старт | Длительность | Начальный сектор | Конечный сектор
———————————————————————
1 | 0:00.00 | 4:34.50 | 0 | 20599
2 | 4:34.50 | 4:46.00 | 20600 | 42049
3 | 9:20.50 | 9:46.55 | 42050 | 86054
4 | 19:07.30 | 4:51.35 | 86055 | 107914
5 | 23:58.65 | 5:11.66 | 107915 | 131305
6 | 29:10.56 | 4:37.53 | 131306 | 152133
7 | 33:48.34 | 5:17.68 | 152134 | 175976
8 | 39:06.27 | 4:46.32 | 175977 | 197458
9 | 43:52.59 | 16:53.30 | 197459 | 273463

Характеристики диапазона извлечения и сообщения об ошибках

Выбранный диапазон

Имя файла C:\Program Files\Exact Audio Copy\Flac\Dio – Holy Diver Live CD1.wav

Пиковый уровень 99.9 %
Скорость извлечения 7.4 X
Качество диапазона 100.0 %
CRC теста CF93563F
CRC копии CF93563F
Копирование… OK

Ошибок не произошло

AccurateRip: сводка

Трек 1 отсутствует в базе данных
Трек 2 отсутствует в базе данных
Трек 3 отсутствует в базе данных
Трек 4 отсутствует в базе данных
Трек 5 отсутствует в базе данных
Трек 6 отсутствует в базе данных
Трек 7 отсутствует в базе данных
Трек 8 отсутствует в базе данных
Трек 9 отсутствует в базе данных

Ни одного трека нет в базе AccurateRip

Конец отчёта

==== Контрольная сумма отчёта 4C276349DAF9427726F5741666BA7C611700A4840255F7DBCB1BF6C90444075E ====

Exact Audio Copy V1.0 beta 3 from 29. August 2011

Отчёт EAC об извлечении, выполненном 26. марта 2013, 19:58

Dio / Holy Diver Live CD2

Дисковод: SONY DVD RW DRU-190S Adapter: 3 ID: 0

Режим чтения : Достоверность
Использование точного потока : Да
Отключение кэша аудио : Да
Использование указателей C2 : Нет

Коррекция смещения при чтении : 6
Способность читать области Lead-in и Lead-out : Нет
Заполнение пропущенных сэмплов тишиной : Да
Удаление блоков с тишиной в начале и конце : Нет
При вычислениях CRC использовались нулевые сэмплы : Да
Интерфейс : Встроенный Win32-интерфейс для Win NT/2000

Выходной формат : Пользовательский кодировщик
Выбранный битрейт : 768 kBit/s
Качество : Высокий
Добавление ID3-тега : Нет
Утилита сжатия : C:\Program Files\Exact Audio Copy\Flac\flac.exe
Дополнительные параметры : -V -8 -T “Date=%year%” -T “Genre=%genre%” %source%

TOC извлечённого CD

Трек | Старт | Длительность | Начальный сектор | Конечный сектор
———————————————————————
1 | 0:00.00 | 6:54.34 | 0 | 31083
2 | 6:54.34 | 3:21.65 | 31084 | 46223
3 | 10:16.24 | 6:10.62 | 46224 | 74035
4 | 16:27.11 | 8:23.01 | 74036 | 111761
5 | 24:50.12 | 11:25.58 | 111762 | 163194
6 | 36:15.70 | 4:14.46 | 163195 | 182290
7 | 40:30.41 | 6:14.60 | 182291 | 210400
8 | 46:45.26 | 6:21.52 | 210401 | 239027

Характеристики диапазона извлечения и сообщения об ошибках

Выбранный диапазон

Имя файла C:\Program Files\Exact Audio Copy\Flac\Dio – Holy Diver Live CD2.wav

Пиковый уровень 99.8 %
Скорость извлечения 5.8 X
Качество диапазона 100.0 %
CRC теста DE52D119
CRC копии DE52D119
Копирование… OK

Ошибок не произошло

AccurateRip: сводка

Трек 1 отсутствует в базе данных
Трек 2 отсутствует в базе данных
Трек 3 отсутствует в базе данных
Трек 4 отсутствует в базе данных
Трек 5 отсутствует в базе данных
Трек 6 отсутствует в базе данных
Трек 7 отсутствует в базе данных
Трек 8 отсутствует в базе данных

Ни одного трека нет в базе AccurateRip

Конец отчёта

==== Контрольная сумма отчёта BED0353181E31A33BCEAA98F3E4B59D132462AACB77FF0993BE3AB9C5988B147 ====

REM GENRE “Heavy Metal”
REM DATE 2006
REM DISCID 6A0E3E09
REM COMMENT “ExactAudioCopy v1.0b3”
CATALOG 4988002509881
PERFORMER “Dio”
TITLE “Holy Diver Live CD1”
FILE “Dio – Holy Diver Live CD1.flac” WAVE
TRACK 01 AUDIO
TITLE “Stand Up And Shout”
PERFORMER “Dio”
INDEX 01 00:00:00
TRACK 02 AUDIO
TITLE “Holy Diver”
PERFORMER “Dio”
INDEX 01 04:34:50
TRACK 03 AUDIO
TITLE “Gypsy”
PERFORMER “Dio”
INDEX 01 09:20:50
TRACK 04 AUDIO
TITLE “Caught In The Middle”
PERFORMER “Dio”
INDEX 01 19:07:30
TRACK 05 AUDIO
TITLE “Don’t Talk To Strangers”
PERFORMER “Dio”
INDEX 01 23:58:65
TRACK 06 AUDIO
TITLE “Straight Through The Heart”
PERFORMER “Dio”
INDEX 01 29:10:56
TRACK 07 AUDIO
TITLE “Invisible”
PERFORMER “Dio”
INDEX 01 33:48:34
TRACK 08 AUDIO
TITLE “Rainbow In The Dark”
PERFORMER “Dio”
INDEX 01 39:06:27
TRACK 09 AUDIO
TITLE “Shame On The Night”
PERFORMER “Dio”
INDEX 01 43:52:59

REM GENRE “Heavy Metal”
REM DATE 2006
REM DISCID 730C7308
REM COMMENT “ExactAudioCopy v1.0b3”
CATALOG 4988002509881
PERFORMER “Dio”
TITLE “Holy Diver Live CD2”
FILE “Dio – Holy Diver Live CD2.flac” WAVE
TRACK 01 AUDIO
TITLE “Tarot Woman”
PERFORMER “Dio”
INDEX 01 00:00:00
TRACK 02 AUDIO
TITLE “Sign Of The Southern Cross”
PERFORMER “Dio”
INDEX 01 06:54:34
TRACK 03 AUDIO
TITLE “One Night In The City”
PERFORMER “Dio”
INDEX 01 10:16:24
TRACK 04 AUDIO
TITLE “Gates Of Babylon”
PERFORMER “Dio”
INDEX 01 16:27:11
TRACK 05 AUDIO
TITLE “Heaven And Hell”
PERFORMER “Dio”
INDEX 01 24:50:12
TRACK 06 AUDIO
TITLE “Man On The Silver Mountain”
PERFORMER “Dio”
INDEX 01 36:15:70
TRACK 07 AUDIO
TITLE “Long Live Rock And Roll”
PERFORMER “Dio”
INDEX 01 40:30:41
TRACK 08 AUDIO
TITLE “We Rock”
PERFORMER “Dio”
INDEX 01 46:45:26


Leave a Reply

Your email address will not be published. Required fields are marked *

This site uses Akismet to reduce spam. Learn how your comment data is processed.