Dio – Holy Diver (Limited Remastered Edition)




Artist: Dio
Year: 1983/2012
Genre: Rock
Notes: Discogs
Add. Notes: Limited Remastered Edition
Cover incl.: Yes
Encoder: FLAC
Bitrate: ~900 kBit/s (44.1 kHz/16 Bit/s)
Log & Cue incl.: Yes
Size: 320 MB
Password: “slam” (without ” “)


All Downloads/Hosters are compatible

Download 1
KatFile.com
Turbobit.net
Rapidgator.net
Turbobit.net
Download 2
KatFile.com
Turbobit.net
Rapidgator.net
Turbobit.net

Tracklist:

1  - Stand Up And Shout  - 3:17
2  - Holy Diver  - 5:50
3  - Gypsy  - 3:35
4  - Caught In The Middle  - 4:13
5  - Don't Talk To Strangers  - 4:52
6  - Straight Through The Heart  - 
4:33
7  - Invisible  - 5:24
8  - Rainbow In The Dark  - 4:14
9  - Shame On The Night  - 5:19

EAC-Log, CUE-Sheed & NFO:

Click to open spoiler
Exact Audio Copy V0.99 prebeta 5 from 4. May 2009

EAC extraction logfile from 19. January 2013, 22:00

Dio / Holy Diver (AFZ 136)

Used drive : Optiarc BD RW BD-5740H Adapter: 0 ID: 0

Read mode : Secure
Utilize accurate stream : Yes
Defeat audio cache : Yes
Make use of C2 pointers : No

Read offset correction : 48
Overread into Lead-In and Lead-Out : No
Fill up missing offset samples with silence : Yes
Delete leading and trailing silent blocks : No
Null samples used in CRC calculations : Yes
Used interface : Native Win32 interface for Win NT & 2000

Used output format : User Defined Encoder
Selected bitrate : 1024 kBit/s
Quality : High
Add ID3 tag : No
Command line compressor : C:\Program Files (x86)\Exact Audio Copy\Flac\flac.exe
Additional command line options : -T “DATE=%y” -T “GENRE=%m” -8 -V %s

TOC of the extracted CD

Track | Start | Length | Start sector | End sector
———————————————————
1 | 0:00.00 | 3:20.67 | 0 | 15066
2 | 3:20.67 | 5:55.18 | 15067 | 41709
3 | 9:16.10 | 3:40.64 | 41710 | 58273
4 | 12:56.74 | 4:18.31 | 58274 | 77654
5 | 17:15.30 | 5:01.25 | 77655 | 100254
6 | 22:16.55 | 4:35.12 | 100255 | 120891
7 | 26:51.67 | 5:26.22 | 120892 | 145363
8 | 32:18.14 | 4:14.32 | 145364 | 164445
9 | 36:32.46 | 5:23.37 | 164446 | 188707

Range status and errors

Selected range

Filename D:\Ripped By liveevil\Dio – Holy Diver (AFZ 136).wav

Peak level 96.0 %
Range quality 100.0 %
Test CRC 55DCC05A
Copy CRC 55DCC05A
Copy OK

No errors occurred

AccurateRip summary

Track 1 accurately ripped (confidence 4) [72556217]
Track 2 accurately ripped (confidence 4) [11C30076]
Track 3 accurately ripped (confidence 4) [0AEB7304]
Track 4 accurately ripped (confidence 4) [BAF761A8]
Track 5 accurately ripped (confidence 4) [F26B1666]
Track 6 accurately ripped (confidence 4) [07A8373F]
Track 7 accurately ripped (confidence 4) [1CF8FE39]
Track 8 accurately ripped (confidence 4) [08814B38]
Track 9 accurately ripped (confidence 4) [79138686]

All tracks accurately ripped

End of status report

REM GENRE “Heavy Metal”
REM DATE 1983
REM DISCID 7109D409
REM COMMENT “ExactAudioCopy v0.99pb5”
PERFORMER “Dio”
TITLE “Holy Diver (AFZ 136)”
FILE “Dio – Holy Diver (AFZ 136).flac” WAVE
TRACK 01 AUDIO
TITLE “Stand Up And Shout”
PERFORMER “Dio”
INDEX 01 00:00:00
TRACK 02 AUDIO
TITLE “Holy Diver”
PERFORMER “Dio”
INDEX 01 03:20:67
TRACK 03 AUDIO
TITLE “Gypsy”
PERFORMER “Dio”
INDEX 01 09:16:10
TRACK 04 AUDIO
TITLE “Caught In The Middle”
PERFORMER “Dio”
INDEX 01 12:56:74
TRACK 05 AUDIO
TITLE “Don’t Talk To Strangers”
PERFORMER “Dio”
INDEX 01 17:15:30
TRACK 06 AUDIO
TITLE “Straight Through The Heart”
PERFORMER “Dio”
INDEX 01 22:16:55
TRACK 07 AUDIO
TITLE “Invisible”
PERFORMER “Dio”
INDEX 01 26:51:67
TRACK 08 AUDIO
TITLE “Rainbow In The Dark”
PERFORMER “Dio”
INDEX 01 32:18:14
TRACK 09 AUDIO
TITLE “Shame On The Night”
PERFORMER “Dio”
INDEX 01 36:32:46


Leave a Reply

Your email address will not be published. Required fields are marked *

Enter the text from the image below
 

This site uses Akismet to reduce spam. Learn how your comment data is processed.