Dio – Holy Diver (Japanese Edition)




Artist: Dio
Year: 1983/1986
Genre: Metal
Notes: Discogs
Add. Notes: Japanese Edition
Cover incl.: Yes
Encoder: FLAC
Bitrate: ~700 kBit/s (44.1 kHz/16 Bit/s)
Log & Cue incl.: Yes
Size: 277,45 MB
Password: “slam” (without ” “)


All Downloads/Hosters are compatible

Download 1
NitroFlare.com
KatFile.com
Turbobit.net
Rapidgator.net
UploadRar.com
Download 2
NitroFlare.com
KatFile.com
Turbobit.net
Rapidgator.net
UploadRar.com

Tracklist:

1 - Stand Up And Shout - 3:17
2 - Holy Diver - 5:50
3 - Gypsy - 3:35
4 - Caught In The Middle - 4:13
5 - Don't Talk To Strangers - 4:52
6 - Straight Though The Heart - 4:33
7 - Invisible - 5:24
8 - Rainbow In The Dark - 4:14
9 - Shame On The Night - 5:19

EAC-Log, CUE-Sheed & NFO:

Click to open spoiler
Exact Audio Copy V0.99 prebeta 5 from 4. May 2009

Отчёт EAC об извлечении, выполненном 27. октября 2011, 22:08

Dio / Holy Diver

Дисковод: ASUS SDRW-08D2S-U Adapter: 2 ID: 0

Режим чтения : Достоверность
Использование точного потока : Да
Отключение кэша аудио : Да
Использование указателей C2 : Нет

Коррекция смещения при чтении : 103
Способность читать области Lead-in и Lead-out : Нет
Заполнение пропущенных сэмплов тишиной : Да
Удаление блоков с тишиной в начале и конце : Нет
При вычислениях CRC использовались нулевые сэмплы : Да
Интерфейс : Встроенный Win32-интерфейс для Win NT/2000

Выходной формат : Пользовательский кодировщик
Выбранный битрейт : 768 kBit/s
Качество : Высокий
Добавление ID3-тэга : Нет
Утилита сжатия : C:\Program Files\Exact Audio Copy\FLAC\FLAC.EXE
Дополнительные параметры : -8 -V %s

TOC извлечённого CD

Трек | Старт | Длительность | Начальный сектор | Конечный сектор
———————————————————————
1 | 0:00.37 | 3:18.65 | 37 | 14951
2 | 3:19.27 | 5:54.53 | 14952 | 41554
3 | 9:14.05 | 3:40.65 | 41555 | 58119
4 | 12:54.70 | 4:17.45 | 58120 | 77439
5 | 17:12.40 | 4:55.05 | 77440 | 99569
6 | 22:07.45 | 4:34.55 | 99570 | 120174
7 | 26:42.25 | 5:26.00 | 120175 | 144624
8 | 32:08.25 | 4:14.45 | 144625 | 163719
9 | 36:22.70 | 5:19.05 | 163720 | 187649

Характеристики диапазона извлечения и сообщения об ошибках

Выбранный диапазон

Имя файла D:\uTorrent.compl\DIO – ‘Holy Diver’ 1983 ( 1984 Japan 1st Press, Nippon Phonogram 32PD-128 )\Dio – Holy Diver.wav

Пиковый уровень 100.0 %
Качество диапазона 100.0 %
CRC теста ED05D13B
CRC копии ED05D13B
Копирование… OK

Ошибок не произошло

AccurateRip: сводка

Трек 1 точное извлечение (доверие 1) [5E20C195]
Трек 2 точное извлечение (доверие 1) [20FB264A]
Трек 3 точное извлечение (доверие 1) [807814FC]
Трек 4 точное извлечение (доверие 1) [EC9A13C4]
Трек 5 точное извлечение (доверие 1) [B319B584]
Трек 6 точное извлечение (доверие 1) [9916BF04]
Трек 7 точное извлечение (доверие 1) [2146AABC]
Трек 8 точное извлечение (доверие 1) [8E8600BF]
Трек 9 точное извлечение (доверие 1) [BBA04FB9]

Все треки извлечены точно

Конец отчёта

REM GENRE “Hard Rock”
REM DATE 1983
REM DISCID 6709C609
REM COMMENT “ExactAudioCopy v0.99pb5”
PERFORMER “Dio”
TITLE “Holy Diver”
FILE “Dio – Holy Diver.flac” WAVE
TRACK 01 AUDIO
TITLE “Stand Up And Shout”
PERFORMER “Dio”
INDEX 00 00:00:00
INDEX 01 00:00:37
TRACK 02 AUDIO
TITLE “Holy Diver”
PERFORMER “Dio”
INDEX 01 03:19:27
TRACK 03 AUDIO
TITLE “Gypsy”
PERFORMER “Dio”
INDEX 00 09:13:45
INDEX 01 09:14:05
TRACK 04 AUDIO
TITLE “Caught In The Middle”
PERFORMER “Dio”
INDEX 00 12:53:62
INDEX 01 12:54:70
TRACK 05 AUDIO
TITLE “Don’t Talk To Strangers”
PERFORMER “Dio”
INDEX 00 17:11:02
INDEX 01 17:12:40
TRACK 06 AUDIO
TITLE “Straight Through The Heart”
PERFORMER “Dio”
INDEX 00 22:05:47
INDEX 01 22:07:45
TRACK 07 AUDIO
TITLE “Invisible”
PERFORMER “Dio”
INDEX 00 26:40:70
INDEX 01 26:42:25
TRACK 08 AUDIO
TITLE “Rainbow In The Dark”
PERFORMER “Dio”
INDEX 00 32:07:62
INDEX 01 32:08:25
TRACK 09 AUDIO
TITLE “Shame On The Night”
PERFORMER “Dio”
INDEX 01 36:22:70


Leave a Reply

Your email address will not be published. Required fields are marked *

This site uses Akismet to reduce spam. Learn how your comment data is processed.