Dio – Holy Diver (Japanese Edition)




Artist: Dio
Year: 1983/1989
Genre: Metal
Notes: Discogs
Add. Notes: Japanese Edition
Cover incl.: Yes
Encoder: FLAC
Bitrate: ~900 kBit/s (44.1 kHz/16 Bit/s)
Log & Cue incl.: Yes
Size: 273 MB
Password: “slam” (without ” “)


All Downloads/Hosters are compatible

Download 1
KatFile.com
Rapidgator.net
Turbobit.net
FileFactory.com
Download 2
KatFile.com
Rapidgator.net
Turbobit.net
FileFactory.com

Tracklist:

1 - Stand Up And Shout - 3:16
2 - Holy Diver - 5:56
3 - Gypsy - 3:38
4 - Caught In The Middle - 4:14
5 - Don't Talk To Strangers - 4:53
6 - Straight Through The Heart - 
4:31
7 - Invisible - 5:24
8 - Rainbow In The Dark - 4:14
9 - Shame On The Night - 5:19

EAC-Log, CUE-Sheed & NFO:

Click to open spoiler
Exact Audio Copy V0.99 prebeta 4 from 23. January 2008

EAC extraction logfile from 3. February 2011, 19:51

Dio / Holy Diver (PPD-3070)

Used drive : PLEXTOR DVDR PX-760A Adapter: 0 ID: 0

Read mode : Secure
Utilize accurate stream : Yes
Defeat audio cache : Yes
Make use of C2 pointers : No

Read offset correction : 30
Overread into Lead-In and Lead-Out : No
Fill up missing offset samples with silence : Yes
Delete leading and trailing silent blocks : No
Null samples used in CRC calculations : Yes
Used interface : Installed external ASPI interface

Used output format : Internal WAV Routines
Sample format : 44.100 Hz; 16 Bit; Stereo

TOC of the extracted CD

Track | Start | Length | Start sector | End sector
———————————————————
1 | 0:00.37 | 3:18.63 | 37 | 14949
2 | 3:19.25 | 5:51.50 | 14950 | 41324
3 | 9:11.00 | 3:38.25 | 41325 | 57699
4 | 12:49.25 | 4:17.27 | 57700 | 77001
5 | 17:06.52 | 4:53.10 | 77002 | 98986
6 | 21:59.62 | 4:34.23 | 98987 | 119559
7 | 26:34.10 | 5:25.35 | 119560 | 143969
8 | 31:59.45 | 4:14.22 | 143970 | 163041
9 | 36:13.67 | 5:19.13 | 163042 | 186979

Range status and errors

Selected range

Filename D:\bki71\Dio – Holy Diver (PPD-3070).wav

Peak level 99.7 %
Range quality 100.0 %
Test CRC 5363D11A
Copy CRC 5363D11A
Copy OK

No errors occurred

AccurateRip summary

Track 1 accurately ripped (confidence 2) [5F48481D]
Track 2 accurately ripped (confidence 1) [6713EC06]
Track 3 accurately ripped (confidence 1) [591736FD]
Track 4 accurately ripped (confidence 2) [31FBDA02]
Track 5 accurately ripped (confidence 2) [6D860C2B]
Track 6 accurately ripped (confidence 2) [F5FFF3EA]
Track 7 accurately ripped (confidence 2) [17B841C9]
Track 8 accurately ripped (confidence 2) [C7F51087]
Track 9 accurately ripped (confidence 1) [0FFA919C]

All tracks accurately ripped

End of status report

REM GENRE “Heavy Metal”
REM DATE 1983
REM DISCID 6409BD09
REM COMMENT “ExactAudioCopy v0.99pb4”
PERFORMER “Dio”
TITLE “Holy Diver (PPD-3070)”
FILE “Dio – Holy Diver (PPD-3070).flac” WAVE
TRACK 01 AUDIO
TITLE “Stand Up And Shout”
PERFORMER “Dio”
INDEX 00 00:00:00
INDEX 01 00:00:37
TRACK 02 AUDIO
TITLE “Holy Diver”
PERFORMER “Dio”
INDEX 00 03:18:33
INDEX 01 03:19:25
TRACK 03 AUDIO
TITLE “Gypsy”
PERFORMER “Dio”
INDEX 00 09:10:43
INDEX 01 09:11:00
TRACK 04 AUDIO
TITLE “Caught In The Middle”
PERFORMER “Dio”
INDEX 00 12:47:28
INDEX 01 12:49:25
TRACK 05 AUDIO
TITLE “Don’t Talk To Strangers”
PERFORMER “Dio”
INDEX 00 17:04:15
INDEX 01 17:06:52
TRACK 06 AUDIO
TITLE “Straight Through The Heart”
PERFORMER “Dio”
INDEX 00 21:58:38
INDEX 01 21:59:62
TRACK 07 AUDIO
TITLE “Invisible”
PERFORMER “Dio”
INDEX 00 26:32:43
INDEX 01 26:34:10
TRACK 08 AUDIO
TITLE “Rainbow In The Dark”
PERFORMER “Dio”
INDEX 00 31:58:67
INDEX 01 31:59:45
TRACK 09 AUDIO
TITLE “Shame On The Night”
PERFORMER “Dio”
INDEX 01 36:13:67


Leave a Reply

Your email address will not be published. Required fields are marked *

This site uses Akismet to reduce spam. Learn how your comment data is processed.