Dio – Finding The Sacred Heart – Live In Philly 1986




Artist: Dio
Year: 2013
Genre: Metal
Notes: Discogs
Add. Notes:
Cover incl.: Yes
Encoder: FLAC
Bitrate: ~1000 kBit/s (44.1 kHz/16 Bit/s)
Log & Cue incl.: Yes
Size: 796 MB
Password: “slam” (without ” “)


All Downloads/Hosters are compatible

Download 1
KatFile.com
Rapidgator.net
Turbobit.net
FileFactory.com
Download 2
KatFile.com
Rapidgator.net
Turbobit.net
FileFactory.com

Tracklist:

Disc 1:
1. Draco Ignis
2. King Of Rock And Roll
3. Like The Beat Of A Heart
4. Don't Talk To Strangers
5. Hungry For Heaven
6.1. The Last In Line
6.2. Children Of The Sea
6.3. Holy Diver
7. Drum Solo
8. Heaven And Hell
9. Keyboard Solo
10. Guitar Solo

Disc 2:
1. Sacred Heart
2.1. Rock 'N' Roll Children
2.2. Long Live Rock 'N' Roll
2.3. Man On The Silver Mountain
3. Time To Burn
4. Stand Up And Shout
5. Rainbow In The Dark
6. We Rock

EAC-Log, CUE-Sheed & NFO:

Click to open spoiler
Exact Audio Copy V1.0 beta 3 from 29. August 2011

EAC extraction logfile from 4. July 2013, 20:09

Dio / Finding The Sacred Heart – Live In Philly 1986 (CD1)

Used drive : PIONEER DVD-RW DVR-219L Adapter: 1 ID: 0

Read mode : Secure
Utilize accurate stream : Yes
Defeat audio cache : Yes
Make use of C2 pointers : No

Read offset correction : 6
Overread into Lead-In and Lead-Out : No
Fill up missing offset samples with silence : Yes
Delete leading and trailing silent blocks : No
Null samples used in CRC calculations : Yes
Used interface : Native Win32 interface for Win NT & 2000

Used output format : Internal WAV Routines
Sample format : 44.100 Hz; 16 Bit; Stereo

TOC of the extracted CD

Track | Start | Length | Start sector | End sector
———————————————————
1 | 0:00.00 | 1:09.20 | 0 | 5194
2 | 1:09.20 | 3:32.59 | 5195 | 21153
3 | 4:42.04 | 5:18.19 | 21154 | 45022
4 | 10:00.23 | 5:52.59 | 45023 | 71481
5 | 15:53.07 | 4:14.19 | 71482 | 90550
6 | 20:07.26 | 8:11.26 | 90551 | 127401
7 | 28:18.52 | 5:06.01 | 127402 | 150352
8 | 33:24.53 | 6:27.66 | 150353 | 179443
9 | 39:52.44 | 6:08.16 | 179444 | 207059
10 | 46:00.60 | 7:23.38 | 207060 | 240322

Range status and errors

Selected range

Filename D:\.www.AvaxHome.ru\Dio – Finding The Sacred Heart – Live In Philly 1986 (CD1).wav

Peak level 100.0 %
Extraction speed 7.5 X
Range quality 100.0 %
Test CRC D03F84F0
Copy CRC D03F84F0
Copy OK

No errors occurred

AccurateRip summary

Track 1 not present in database
Track 2 not present in database
Track 3 not present in database
Track 4 not present in database
Track 5 not present in database
Track 6 not present in database
Track 7 not present in database
Track 8 not present in database
Track 9 not present in database
Track 10 not present in database

None of the tracks are present in the AccurateRip database

End of status report

—- CUETools DB Plugin V2.1.4

[CTDB TOCID: Gm1kioq8b4kT0Gdw6P1L_EpBUEE-] found
Submit result: Gm1kioq8b4kT0Gdw6P1L_EpBUEE- has been confirmed
Track | CTDB Status
1 | (5/5) Accurately ripped
2 | (5/5) Accurately ripped
3 | (5/5) Accurately ripped
4 | (5/5) Accurately ripped
5 | (5/5) Accurately ripped
6 | (5/5) Accurately ripped
7 | (5/5) Accurately ripped
8 | (5/5) Accurately ripped
9 | (5/5) Accurately ripped
10 | (5/5) Accurately ripped

==== Log checksum 82A1E6D92793B4D63A5E60BA6AF9E6F8265E005038FD0B417F30FBFC20A31FC7 ====

Exact Audio Copy V1.0 beta 3 from 29. August 2011

EAC extraction logfile from 4. July 2013, 20:32

Dio / Finding The Sacred Heart – Live In Philly 1986 (CD2)

Used drive : PIONEER DVD-RW DVR-219L Adapter: 1 ID: 0

Read mode : Secure
Utilize accurate stream : Yes
Defeat audio cache : Yes
Make use of C2 pointers : No

Read offset correction : 6
Overread into Lead-In and Lead-Out : No
Fill up missing offset samples with silence : Yes
Delete leading and trailing silent blocks : No
Null samples used in CRC calculations : Yes
Used interface : Native Win32 interface for Win NT & 2000

Used output format : Internal WAV Routines
Sample format : 44.100 Hz; 16 Bit; Stereo

TOC of the extracted CD

Track | Start | Length | Start sector | End sector
———————————————————
1 | 0:00.00 | 12:52.08 | 0 | 57907
2 | 12:52.08 | 10:44.25 | 57908 | 106232
3 | 23:36.33 | 4:54.40 | 106233 | 128322
4 | 28:30.73 | 4:01.35 | 128323 | 146432
5 | 32:32.33 | 4:55.38 | 146433 | 168595
6 | 37:27.71 | 5:02.51 | 168596 | 191296

Range status and errors

Selected range

Filename D:\.www.AvaxHome.ru\Dio – Finding The Sacred Heart – Live In Philly 1986 (CD2).wav

Peak level 100.0 %
Extraction speed 7.1 X
Range quality 100.0 %
Test CRC F87FB34A
Copy CRC F87FB34A
Copy OK

No errors occurred

AccurateRip summary

Track 1 not present in database
Track 2 not present in database
Track 3 not present in database
Track 4 not present in database
Track 5 not present in database
Track 6 not present in database

None of the tracks are present in the AccurateRip database

End of status report

—- CUETools DB Plugin V2.1.4

[CTDB TOCID: GQXwcwmWJUhixl5.RJ5ErdX9djE-] found
Submit result: GQXwcwmWJUhixl5.RJ5ErdX9djE- has been confirmed
Track | CTDB Status
1 | (6/6) Accurately ripped
2 | (6/6) Accurately ripped
3 | (6/6) Accurately ripped
4 | (6/6) Accurately ripped
5 | (6/6) Accurately ripped
6 | (6/6) Accurately ripped

==== Log checksum 9CB107A072B5A1AF76B8A8AB97DD9BD0C498E72DE92810BDD6B30A03FC697149 ====

REM GENRE “Heavy Metal”
REM DATE 2013
REM DISCID 720C840A
REM COMMENT “ExactAudioCopy v1.0b3”
CATALOG 5034504149824
PERFORMER “Dio”
TITLE “Finding The Sacred Heart – Live In Philly 1986 (CD1)”
FILE “Dio – Finding The Sacred Heart – Live In Philly 1986 (CD1).flac” WAVE
TRACK 01 AUDIO
TITLE “Draco Ignis ”
PERFORMER “Dio”
ISRC GBCBR1300084
INDEX 01 00:00:00
TRACK 02 AUDIO
TITLE “King Of Rock And Roll ”
PERFORMER “Dio”
ISRC GBCBR1300085
INDEX 01 01:09:20
TRACK 03 AUDIO
TITLE “Like The Beat Of A Heart ”
PERFORMER “Dio”
ISRC GBCBR1300086
INDEX 01 04:42:04
TRACK 04 AUDIO
TITLE “Don’t Talk To Strangers ”
PERFORMER “Dio”
ISRC GBCBR1300087
INDEX 01 10:00:23
TRACK 05 AUDIO
TITLE “Hungry For Heaven ”
PERFORMER “Dio”
ISRC GBCBR1300088
INDEX 01 15:53:07
TRACK 06 AUDIO
TITLE “The Last In Line – Children Of The Sea – Holy Diver ”
PERFORMER “Dio”
ISRC GBCBR1300089
INDEX 01 20:07:26
TRACK 07 AUDIO
TITLE “Drum Solo ”
PERFORMER “Dio”
ISRC GBCBR1300093
INDEX 01 28:18:52
TRACK 08 AUDIO
TITLE “Heaven And Hell ”
PERFORMER “Dio”
ISRC GBCBR1300094
INDEX 01 33:24:53
TRACK 09 AUDIO
TITLE “Keyboard Solo ”
PERFORMER “Dio”
ISRC GBCBR1300095
INDEX 01 39:52:44
TRACK 10 AUDIO
TITLE “Guitar Solo ”
PERFORMER “Dio”
ISRC GBCBR1300096
INDEX 01 46:00:60

REM GENRE “Heavy Metal”
REM DATE 2013
REM DISCID 5109F606
REM COMMENT “ExactAudioCopy v1.0b3”
CATALOG 5034504149824
PERFORMER “Dio”
TITLE “Finding The Sacred Heart – Live In Philly 1986 (CD2)”
FILE “Dio – Finding The Sacred Heart – Live In Philly 1986 (CD2).flac” WAVE
TRACK 01 AUDIO
TITLE “Sacred Heart”
PERFORMER “Dio”
ISRC GBCBR1300097
INDEX 01 00:00:00
TRACK 02 AUDIO
TITLE “Long Live Rock ‘n’ Roll / Man On The Silver Mountain/Rock ‘n’ Roll Children”
PERFORMER “Dio”
ISRC GBCBR1300098
INDEX 01 12:52:08
TRACK 03 AUDIO
TITLE “Time To Burn”
PERFORMER “Dio”
ISRC GBCBR1300102
INDEX 01 23:36:33
TRACK 04 AUDIO
TITLE “Stand Up And Shout”
PERFORMER “Dio”
ISRC GBCBR1300103
INDEX 01 28:30:73
TRACK 05 AUDIO
TITLE “Rainbow In The Dark”
PERFORMER “Dio”
ISRC GBCBR1300104
INDEX 01 32:32:33
TRACK 06 AUDIO
TITLE “We Rock”
PERFORMER “Dio”
ISRC GBCBR1300105
INDEX 01 37:27:71


Leave a Reply

Your email address will not be published. Required fields are marked *

Enter the text from the image below
 

This site uses Akismet to reduce spam. Learn how your comment data is processed.