Dio – Evil Or Divine: Live In New York City




[Total: 0    Average: 0/5]

Artist: Dio
Year: 2003/2009
Genre: Metal
Notes: Discogs
Add. Notes:
Cover incl.: Yes
Encoder: FLAC
Bitrate: ~1100 kBit/s (44.1 kHz/16 Bit/s)
Log & Cue incl.: Yes
Size: 642,69 MB
Password: “slam” (without ” “)


All Downloads/Hosters are compatible

Download 1
Share-online.biz
KatFile.com
Rapidgator.net
NitroFlare.com
Download 2
Share-online.biz
KatFile.com
Rapidgator.net
NitroFlare.com

Tracklist:

1. Killing The Dragon
2. Egypt / Children Of The Sea
3. Push
4. Stand Up And Shout
5. Rock And Roll
6. Don't Talk To Strangers
7. Man On The Silver Mountain
8. Guitar Solo
9. Long Live Rock And Roll
10. Fever Dream
11. Holy Diver
12. Heaven And Hell
13. The Last In Line
14. Rainbow In The Dark
15. We Rock

EAC-Log, CUE-Sheed & NFO:

Click to open spoiler
Exact Audio Copy V1.0 beta 3 from 29. August 2011

EAC extraction logfile from 19. February 2013, 22:56

Dio / Evil Or Divine

Used drive : PIONEER DVD-RW DVR-219L Adapter: 1 ID: 0

Read mode : Secure
Utilize accurate stream : Yes
Defeat audio cache : Yes
Make use of C2 pointers : No

Read offset correction : 6
Overread into Lead-In and Lead-Out : No
Fill up missing offset samples with silence : Yes
Delete leading and trailing silent blocks : No
Null samples used in CRC calculations : Yes
Used interface : Native Win32 interface for Win NT & 2000

Used output format : Internal WAV Routines
Sample format : 44.100 Hz; 16 Bit; Stereo

TOC of the extracted CD

Track | Start | Length | Start sector | End sector
———————————————————
1 | 0:00.00 | 5:06.57 | 0 | 23006
2 | 5:06.57 | 7:56.19 | 23007 | 58725
3 | 13:03.01 | 3:53.35 | 58726 | 76235
4 | 16:56.36 | 3:36.17 | 76236 | 92452
5 | 20:32.53 | 5:11.53 | 92453 | 115830
6 | 25:44.31 | 5:48.43 | 115831 | 141973
7 | 31:32.74 | 2:24.32 | 141974 | 152805
8 | 33:57.31 | 9:06.64 | 152806 | 193819
9 | 43:04.20 | 4:15.08 | 193820 | 212952
10 | 47:19.28 | 4:08.66 | 212953 | 231618
11 | 51:28.19 | 5:06.45 | 231619 | 254613
12 | 56:34.64 | 6:38.23 | 254614 | 284486
13 | 63:13.12 | 5:44.29 | 284487 | 310315
14 | 68:57.41 | 5:04.38 | 310316 | 333153
15 | 74:02.04 | 5:14.11 | 333154 | 356714

Range status and errors

Selected range

Filename E:\Dio – Evil Or Divine.wav

Peak level 98.8 %
Extraction speed 6.8 X
Range quality 99.9 %
Test CRC 4A794C93
Copy CRC 4A794C93
Copy OK

No errors occurred

AccurateRip summary

Track 1 not present in database
Track 2 not present in database
Track 3 not present in database
Track 4 not present in database
Track 5 not present in database
Track 6 not present in database
Track 7 not present in database
Track 8 not present in database
Track 9 not present in database
Track 10 not present in database
Track 11 not present in database
Track 12 not present in database
Track 13 not present in database
Track 14 not present in database
Track 15 not present in database

None of the tracks are present in the AccurateRip database

End of status report

—- CUETools DB Plugin V2.1.4

[CTDB TOCID: dHurCDQTCwAz83oKwlUjI3BZq68-] found
Submit result: already submitted
Track | CTDB Status
1 | (1/1) Accurately ripped
2 | (1/1) Accurately ripped
3 | (1/1) Accurately ripped
4 | (1/1) Accurately ripped
5 | (1/1) Accurately ripped
6 | (1/1) Accurately ripped
7 | (1/1) Accurately ripped
8 | (1/1) Accurately ripped
9 | (1/1) Accurately ripped
10 | (1/1) Accurately ripped
11 | (1/1) Accurately ripped
12 | (1/1) Accurately ripped
13 | (1/1) Accurately ripped
14 | (1/1) Accurately ripped
15 | (1/1) Accurately ripped

==== Log checksum 376DF422750941418B9735212510878B498C861651B27FF4C821DF7298B8E3D9 ====

REM GENRE “Heavy Metal”
REM DATE 2009
REM DISCID E712940F
REM COMMENT “ExactAudioCopy v1.0b3”
PERFORMER “Dio”
TITLE “Evil Or Divine”
FILE “Dio – Evil Or Divine.flac” WAVE
TRACK 01 AUDIO
TITLE “Killing The Dragon”
PERFORMER “Dio”
ISRC GBHQK0801129
INDEX 01 00:00:00
TRACK 02 AUDIO
TITLE “Children Of The Sea”
PERFORMER “Egypt”
ISRC GBHQK0801130
INDEX 01 05:06:57
TRACK 03 AUDIO
TITLE “Push”
PERFORMER “Dio”
ISRC GBHQK0801131
INDEX 01 13:03:01
TRACK 04 AUDIO
TITLE “Stand Up And Shout”
PERFORMER “Dio”
ISRC GBHQK0801132
INDEX 01 16:56:36
TRACK 05 AUDIO
TITLE “Rock And Roll”
PERFORMER “Dio”
ISRC GBHQK0801133
INDEX 01 20:32:53
TRACK 06 AUDIO
TITLE “Don’t Talk To Strangers”
PERFORMER “Dio”
ISRC GBHQK0801134
INDEX 01 25:44:31
TRACK 07 AUDIO
TITLE “Man On The Silver Mountain”
PERFORMER “Dio”
ISRC GBHQK0801135
INDEX 01 31:32:74
TRACK 08 AUDIO
TITLE “Guitar Solo”
PERFORMER “Dio”
ISRC GBHQK0801136
INDEX 01 33:57:31
TRACK 09 AUDIO
TITLE “Long Live Rock And Roll”
PERFORMER “Dio”
ISRC GBHQK0801137
INDEX 01 43:04:20
TRACK 10 AUDIO
TITLE “Fever Dreams”
PERFORMER “Dio”
ISRC GBHQK0801138
INDEX 01 47:19:28
TRACK 11 AUDIO
TITLE “Holy Diver”
PERFORMER “Dio”
ISRC GBHQK0801139
INDEX 01 51:28:19
TRACK 12 AUDIO
TITLE “Heaven And Hell”
PERFORMER “Dio”
ISRC GBHQK0801140
INDEX 01 56:34:64
TRACK 13 AUDIO
TITLE “The Last In Line”
PERFORMER “Dio”
ISRC GBHQK0801141
INDEX 01 63:13:12
TRACK 14 AUDIO
TITLE “Rainbow In The Dark”
PERFORMER “Dio”
ISRC GBHQK0801142
INDEX 01 68:57:41
TRACK 15 AUDIO
TITLE “We Rock”
PERFORMER “Dio”
ISRC GBHQK0801143
INDEX 01 74:02:04


Spread the Download

Leave a Reply

Your email address will not be published. Required fields are marked *

Enter the text from the image below
 

This site uses Akismet to reduce spam. Learn how your comment data is processed.