Dio – Evil Or Divine: Live In New York City (Reissue)




[Total: 0    Average: 0/5]

Artist: Dio
Year: 2003/2005
Genre: Rock
Notes: Discogs
Add. Notes: Reissue
Cover incl.: Yes
Encoder: FLAC
Bitrate: ~1000 kBit/s (44.1 kHz/16 Bit/s)
Log & Cue incl.: Yes
Size: 572,69 MB
Password: “slam” (without ” “)


All Downloads/Hosters are compatible

Download 1
Share-online.biz
KatFile.com
Rapidgator.net
DoUploads.net
Download 2
Share-online.biz
KatFile.com
Rapidgator.net
DoUploads.net

Tracklist:

1 - Killing The Dragon - 5:06
2 - Egypt / Children Of The Sea - 7:56
3 - Push - 3:53
4 - Stand Up And Shout - 3:36
5 - Rock And Roll - 5:12
6 - Don't Talk To Strangers - 5:49
7 - Man On The Silver Mountain - 2:24
8 - Guitar Solo - 9:07
9 - Long Live Rock And Roll - 4:15
10 - Fever Dream - 4:09
11 - Holy Diver - 5:07
12 - Heaven And Hell - 6:38
13 - The Last In Line - 5:44
14 - Rainbow In The Dark - 5:04
15 - We Rock - 5:15

EAC-Log, CUE-Sheed & NFO:

Click to open spoiler
Exact Audio Copy V1.0 beta 3 from 29. August 2011

EAC extraction logfile from 4. July 2013, 12:48

Dio / Evil Or Divine(Live in New York City)

Used drive : Optiarc DVD RW AD-7203A Adapter: 3 ID: 1

Read mode : Secure
Utilize accurate stream : Yes
Defeat audio cache : Yes
Make use of C2 pointers : No

Read offset correction : 48
Overread into Lead-In and Lead-Out : No
Fill up missing offset samples with silence : Yes
Delete leading and trailing silent blocks : No
Null samples used in CRC calculations : Yes
Used interface : Native Win32 interface for Win NT & 2000

Used output format : User Defined Encoder
Selected bitrate : 768 kBit/s
Quality : High
Add ID3 tag : No
Command line compressor : C:\Program Files (x86)\Exact Audio Copy\FLAC\FLAC.EXE
Additional command line options : -6 -V -T “ARTIST=%artist%” -T “TITLE=%title%” -T “ALBUM=%albumtitle%” -T “DATE=%year%” -T “TRACKNUMBER=%tracknr%” -T “GENRE=%genre%” -T “COMMENT=%comment%” -T “BAND=%albuminterpret%” -T “ALBUMARTIST=%albuminterpret%” -T “COMPOSER=%composer%” %haslyrics%–tag-from-file=LYRICS=”%lyricsfile%”%haslyrics% -T “DISCNUMBER=%cdnumber%” -T “TOTALDISCS=%totalcds%” -T “TOTALTRACKS=%numtracks%” %hascover%–picture=”%coverfile%”%hascover% %source% -o %dest%

TOC of the extracted CD

Track | Start | Length | Start sector | End sector
———————————————————
1 | 0:00.00 | 5:06.23 | 0 | 22972
2 | 5:06.23 | 7:56.19 | 22973 | 58691
3 | 13:02.42 | 3:53.35 | 58692 | 76201
4 | 16:56.02 | 3:36.17 | 76202 | 92418
5 | 20:32.19 | 5:11.53 | 92419 | 115796
6 | 25:43.72 | 5:48.43 | 115797 | 141939
7 | 31:32.40 | 2:24.32 | 141940 | 152771
8 | 33:56.72 | 9:06.64 | 152772 | 193785
9 | 43:03.61 | 4:15.08 | 193786 | 212918
10 | 47:18.69 | 4:08.66 | 212919 | 231584
11 | 51:27.60 | 5:06.45 | 231585 | 254579
12 | 56:34.30 | 6:38.23 | 254580 | 284452
13 | 63:12.53 | 5:44.29 | 284453 | 310281
14 | 68:57.07 | 5:04.38 | 310282 | 333119
15 | 74:01.45 | 5:15.38 | 333120 | 356782

Range status and errors

Selected range

Filename C:\records\Dio – Evil Or Divine(Live in New York City).wav

Peak level 98.8 %
Extraction speed 4.4 X
Range quality 99.9 %
Test CRC E8A1397D
Copy CRC E8A1397D
Copy OK

No errors occurred

AccurateRip summary

Track 1 accurately ripped (confidence 6) [C1CB1B63] (AR v2)
Track 2 accurately ripped (confidence 6) [DCF1BAE8] (AR v2)
Track 3 accurately ripped (confidence 6) [E8A7718B] (AR v2)
Track 4 accurately ripped (confidence 6) [53544A5B] (AR v2)
Track 5 accurately ripped (confidence 6) [BF620CAE] (AR v2)
Track 6 accurately ripped (confidence 6) [2870EA50] (AR v2)
Track 7 accurately ripped (confidence 6) [F7352341] (AR v2)
Track 8 accurately ripped (confidence 6) [BAFFF326] (AR v2)
Track 9 accurately ripped (confidence 6) [8286D8BC] (AR v2)
Track 10 accurately ripped (confidence 6) [6E3BD9E2] (AR v2)
Track 11 accurately ripped (confidence 6) [D796CFF0] (AR v2)
Track 12 accurately ripped (confidence 6) [1BA2546D] (AR v2)
Track 13 accurately ripped (confidence 6) [AFA3E817] (AR v2)
Track 14 accurately ripped (confidence 6) [097FF861] (AR v2)
Track 15 accurately ripped (confidence 6) [3BCECFB1] (AR v2)

All tracks accurately ripped

End of status report

==== Log checksum 60CE18831C41685230591A205D18CA3F496ECB33B2430F2C532CEAF1A181771A ====

REM GENRE Rock
REM DATE 2005
REM DISCID E812950F
REM COMMENT “ExactAudioCopy v1.0b3”
PERFORMER “Dio”
TITLE “Evil Or Divine(Live in New York City)”
FILE “Dio – Evil Or Divine(Live in New York City).flac” WAVE
TRACK 01 AUDIO
TITLE “Killing The Dragon”
PERFORMER “Dio”
INDEX 01 00:00:00
TRACK 02 AUDIO
TITLE “Children Of The Sea”
PERFORMER “Egypt”
INDEX 01 05:06:23
TRACK 03 AUDIO
TITLE “Push”
PERFORMER “Dio”
INDEX 01 13:02:42
TRACK 04 AUDIO
TITLE “Stand Up And Shout”
PERFORMER “Dio”
INDEX 01 16:56:02
TRACK 05 AUDIO
TITLE “Rock And Roll”
PERFORMER “Dio”
INDEX 01 20:32:19
TRACK 06 AUDIO
TITLE “Don’t Talk To Strangers”
PERFORMER “Dio”
INDEX 01 25:43:72
TRACK 07 AUDIO
TITLE “Man On The Silver Mountain”
PERFORMER “Dio”
INDEX 01 31:32:40
TRACK 08 AUDIO
TITLE “Guitar Solo”
PERFORMER “Dio”
INDEX 01 33:56:72
TRACK 09 AUDIO
TITLE “Long Live Rock And Roll”
PERFORMER “Dio”
INDEX 01 43:03:61
TRACK 10 AUDIO
TITLE “Fever Dreams”
PERFORMER “Dio”
INDEX 01 47:18:69
TRACK 11 AUDIO
TITLE “Holy Diver”
PERFORMER “Dio”
INDEX 01 51:27:60
TRACK 12 AUDIO
TITLE “Heaven And Hell”
PERFORMER “Dio”
INDEX 01 56:34:30
TRACK 13 AUDIO
TITLE “The Last In Line”
PERFORMER “Dio”
INDEX 01 63:12:53
TRACK 14 AUDIO
TITLE “Rainbow In The Dark”
PERFORMER “Dio”
INDEX 01 68:57:07
TRACK 15 AUDIO
TITLE “We Rock”
PERFORMER “Dio”
INDEX 01 74:01:45


Spread the Download

Leave a Reply

Your email address will not be published. Required fields are marked *

Enter the text from the image below
 

This site uses Akismet to reduce spam. Learn how your comment data is processed.