Dio – Dream Evil




[Total: 0    Average: 0/5]

Artist: Dio
Year: 1987
Genre: Metal
Notes: Discogs
Add. Notes:
Cover incl.: Yes
Encoder: APE
Bitrate: ~800 kBit/s (44.1 kHz/16 Bit/s)
Log & Cue incl.: Yes
Size: 262,16 MB
Password: “slam” (without ” “)


All Downloads/Hosters are compatible

Download 1
Share-online.biz
NitroFlare.com
KatFile.com
Rapidgator.net
Download 2
Share-online.biz
NitroFlare.com
KatFile.com
Rapidgator.net

Tracklist:

1 - Night People - 4:06
2 - Dream Evil - 4:26
3 - Sunset Superman - 5:45
4 - All The Fools Sailed Away - 7:10
5 - Naked In The Rain - 5:09
6 - Overlove - 3:26
7 - I Could Have Been A Dreamer - 4:42
8 - Faces In The Window - 3:53
9 - When A Woman Cries - 4:43

EAC-Log, CUE-Sheed & NFO:

Click to open spoiler
Exact Audio Copy V0.99 prebeta 5 from 4. May 2009

Отчёт EAC об извлечении, выполненном 4. сентября 2009, 18:49

Dio / Dream Evil

Дисковод: Optiarc DVD RW AD-7203A Adapter: 0 ID: 0

Режим чтения : Достоверность
Использование точного потока : Да
Отключение кэша аудио : Да
Использование указателей C2 : Нет

Коррекция смещения при чтении : 48
Способность читать области Lead-in и Lead-out : Нет
Заполнение пропущенных сэмплов тишиной : Да
Удаление блоков с тишиной в начале и конце : Нет
При вычислениях CRC использовались нулевые сэмплы : Да
Интерфейс : Встроенный Win32-интерфейс для Win NT/2000

Выходной формат : Внутренние WAV-операции
Формат сэмплов : 44.100 Гц; 16 бит; стерео

TOC извлечённого CD

Трек | Старт | Длительность | Начальный сектор | Конечный сектор
———————————————————————
1 | 0:00.33 | 4:08.65 | 33 | 18697
2 | 4:09.23 | 4:28.12 | 18698 | 38809
3 | 8:37.35 | 5:47.73 | 38810 | 64907
4 | 14:25.33 | 7:12.60 | 64908 | 97367
5 | 21:38.18 | 5:11.70 | 97368 | 120762
6 | 26:50.13 | 3:49.37 | 120763 | 137974
7 | 30:39.50 | 4:45.40 | 137975 | 159389
8 | 35:25.15 | 3:52.73 | 159390 | 176862
9 | 39:18.13 | 4:42.35 | 176863 | 198047

Характеристики диапазона извлечения и сообщения об ошибках

Выбранный диапазон

Имя файла D:\RIPPED\Dio – Dream Evil.wav

Пиковый уровень 98.6 %
Качество диапазона 100.0 %
CRC теста 5833E2D1
CRC копии 5833E2D1
Копирование… OK

Ошибок не произошло

AccurateRip: сводка

Трек 1 точность не определена (достоверность 4) [37C78C42], AccurateRip вернул [860CB9C3]
Трек 2 точность не определена (достоверность 4) [020BF622], AccurateRip вернул [E3B6C34A]
Трек 3 точность не определена (достоверность 4) [935CA70D], AccurateRip вернул [28126FD4]
Трек 4 точность не определена (достоверность 4) [E28C8CFE], AccurateRip вернул [764E07B9]
Трек 5 точность не определена (достоверность 4) [8D71BDB5], AccurateRip вернул [038B51D1]
Трек 6 точность не определена (достоверность 4) [5D610B99], AccurateRip вернул [C49C16F7]
Трек 7 точность не определена (достоверность 4) [20D4B0F4], AccurateRip вернул [C830B0F1]
Трек 8 точность не определена (достоверность 4) [A592B2C0], AccurateRip вернул [2847FE43]
Трек 9 точность не определена (достоверность 4) [EB91330C], AccurateRip вернул [867CEF02]

Ни один трек не прошёл проверки на точность
В вашей базе может быть иной вариант штамповки диска

Конец отчёта

REM GENRE “Heavy Metal”
REM DATE 1987
REM DISCID 610A5009
REM COMMENT “ExactAudioCopy v0.99pb5”
CATALOG 0075992561228
PERFORMER “Dio”
TITLE “Dream Evil”
FILE “Dio – Dream Evil.ape” WAVE
TRACK 01 AUDIO
TITLE “Night People”
PERFORMER “Dio”
INDEX 00 00:00:00
INDEX 01 00:00:33
TRACK 02 AUDIO
TITLE “Dream Evil”
PERFORMER “Dio”
INDEX 00 04:06:53
INDEX 01 04:09:23
TRACK 03 AUDIO
TITLE “Sunset Superman”
PERFORMER “Dio”
INDEX 00 08:35:25
INDEX 01 08:37:35
TRACK 04 AUDIO
TITLE “All the Fools Sailed Away”
PERFORMER “Dio”
INDEX 00 14:23:73
INDEX 01 14:25:33
TRACK 05 AUDIO
TITLE “Naked In The Rain”
PERFORMER “Dio”
INDEX 00 21:37:24
INDEX 01 21:38:18
TRACK 06 AUDIO
TITLE “Overlove”
PERFORMER “Dio”
INDEX 00 26:48:18
INDEX 01 26:50:13
TRACK 07 AUDIO
TITLE “I Could Have Been A Dreamer”
PERFORMER “Dio”
INDEX 00 30:35:40
INDEX 01 30:39:50
TRACK 08 AUDIO
TITLE “Faces In The Window”
PERFORMER “Dio”
INDEX 00 35:22:63
INDEX 01 35:25:15
TRACK 09 AUDIO
TITLE “When A Woman Cries”
PERFORMER “Dio”
INDEX 00 39:15:71
INDEX 01 39:18:13


Spread the Download

Leave a Reply

Your email address will not be published. Required fields are marked *

Enter the text from the image below
 

This site uses Akismet to reduce spam. Learn how your comment data is processed.