Dio – Dream Evil (Remastered Japanese Edition)




Artist: Dio
Year: 1987/2007
Genre: Metal
Notes: Discogs
Add. Notes: Remastered Japanese Edition
Cover incl.: Yes
Encoder: FLAC
Bitrate: ~1000 kBit/s (44.1 kHz/16 Bit/s)
Log & Cue incl.: Yes
Size: 320 MB
Password: “slam” (without ” “)


All Downloads/Hosters are compatible

Download 1
KatFile.com
Turbobit.net
Rapidgator.net
Download 2
KatFile.com
Turbobit.net
Rapidgator.net

Tracklist:

1 - Night People - 4:09
2 - Dream Evil - 4:27
3 - Sunset Superman - 5:47
4 - All The Fools Sailed Away - 7:14
5 - Naked In The Rain - 5:11
6 - Overlove - 3:49
7 - I Could Have Been A Dreamer - 
4:45
8 - Faces In The Window - 3:54
9 - When A Woman Cries - 4:42

EAC-Log, CUE-Sheed & NFO:

Click to open spoiler
Exact Audio Copy V1.0 beta 3 from 29. August 2011

Отчёт EAC об извлечении, выполненном 29. мая 2014, 18:13

DIO / DREAM EVIL

Дисковод: PIONEER DVD-RW DVR-112D Adapter: 1 ID: 1

Режим чтения : Достоверность
Использование точного потока : Да
Отключение кэша аудио : Да
Использование указателей C2 : Нет

Коррекция смещения при чтении : 48
Способность читать области Lead-in и Lead-out : Нет
Заполнение пропущенных сэмплов тишиной : Да
Удаление блоков с тишиной в начале и конце : Нет
При вычислениях CRC использовались нулевые сэмплы : Да
Интерфейс : Встроенный Win32-интерфейс для Win NT/2000

Выходной формат : Пользовательский кодировщик
Выбранный битрейт : 1024 kBit/s
Качество : Высокий
Добавление ID3-тега : Нет
Утилита сжатия : C:\Program Files\DVDVideoSoft\Free Audio Converter\FreeAudioConverter.exe

TOC извлечённого CD

Трек | Старт | Длительность | Начальный сектор | Конечный сектор
———————————————————————
1 | 0:00.00 | 4:09.06 | 0 | 18680
2 | 4:09.06 | 4:27.62 | 18681 | 38767
3 | 8:36.68 | 5:47.74 | 38768 | 64866
4 | 14:24.67 | 7:14.13 | 64867 | 97429
5 | 21:39.05 | 5:11.65 | 97430 | 120819
6 | 26:50.70 | 3:49.34 | 120820 | 138028
7 | 30:40.29 | 4:45.30 | 138029 | 159433
8 | 35:25.59 | 3:54.10 | 159434 | 176993
9 | 39:19.69 | 4:42.21 | 176994 | 198164

Характеристики диапазона извлечения и сообщения об ошибках

Выбранный диапазон

Имя файла C:\Documents and Settings\1\Рабочий стол\DIO – DREAM EVIL.wav

Пиковый уровень 99.9 %
Скорость извлечения 6.7 X
Качество диапазона 100.0 %
CRC теста 5DCED2B8
CRC копии 5DCED2B8
Копирование… OK

Ошибок не произошло

AccurateRip: сводка

Трек 1 : извлечено точно (доверие 3) [15111156] (AR v2)
Трек 2 : извлечено точно (доверие 3) [0353DE81] (AR v2)
Трек 3 : извлечено точно (доверие 3) [6519A908] (AR v2)
Трек 4 : извлечено точно (доверие 3) [F4AF2731] (AR v2)
Трек 5 : извлечено точно (доверие 3) [F8C44BDD] (AR v2)
Трек 6 : извлечено точно (доверие 3) [8268FEE2] (AR v2)
Трек 7 : извлечено точно (доверие 3) [921FE25B] (AR v2)
Трек 8 : извлечено точно (доверие 3) [89945AF8] (AR v2)
Трек 9 : извлечено точно (доверие 3) [53A29DA1] (AR v2)

Все треки извлечены точно

Конец отчёта

==== Контрольная сумма отчёта 4D785AD36FE0815D8143BB1D09E9BBF9AE9FED0F2BCA375630AE7CA04A7594B4 ====

REM GENRE “Heavy Metal”
REM DATE 1987
REM DISCID 620A5209
REM COMMENT “ExactAudioCopy v1.0b3”
PERFORMER “DIO”
TITLE “DREAM EVIL”
FILE “DIO – DREAM EVIL.flac” WAVE
TRACK 01 AUDIO
TITLE “Night People”
PERFORMER “DIO”
INDEX 01 00:00:00
TRACK 02 AUDIO
TITLE “Dream Evil”
PERFORMER “DIO”
INDEX 01 04:09:06
TRACK 03 AUDIO
TITLE “Sunset Superman”
PERFORMER “DIO”
INDEX 00 08:34:28
INDEX 01 08:36:68
TRACK 04 AUDIO
TITLE “All The Fools Sailed Away”
PERFORMER “DIO”
INDEX 01 14:24:67
TRACK 05 AUDIO
TITLE “Naked In The Rain”
PERFORMER “DIO”
INDEX 00 21:37:60
INDEX 01 21:39:05
TRACK 06 AUDIO
TITLE “Overlove”
PERFORMER “DIO”
INDEX 00 26:49:05
INDEX 01 26:50:70
TRACK 07 AUDIO
TITLE “I Could Have Been A Dreamer”
PERFORMER “DIO”
INDEX 00 30:36:56
INDEX 01 30:40:29
TRACK 08 AUDIO
TITLE “Faces In The Window”
PERFORMER “DIO”
INDEX 00 35:23:69
INDEX 01 35:25:59
TRACK 09 AUDIO
TITLE “When A Woman Cries”
PERFORMER “DIO”
INDEX 00 39:16:50
INDEX 01 39:19:69


Leave a Reply

Your email address will not be published. Required fields are marked *

Enter the text from the image below
 

This site uses Akismet to reduce spam. Learn how your comment data is processed.