Dio – Dream Evil (Remastered Deluxe Edition)




[Total: 0    Average: 0/5]

Artist: Dio
Year: 1987/2013
Genre: Metal
Notes: Discogs
Add. Notes: Remastered Deluxe Edition
Cover incl.: Yes
Encoder: FLAC
Bitrate: ~900 kBit/s (44.1 kHz/16 Bit/s)
Log & Cue incl.: Yes/Yes
Size: 818 MB
Password: “slam” (without ” “)


All Downloads/Hosters are compatible

Download 1
KatFile.com
Turbobit.net
FileFactory.com
Rapidgator.net
Download 2
KatFile.com
Turbobit.net
FileFactory.com
Rapidgator.net
Download 3
KatFile.com
Turbobit.net
FileFactory.com
Rapidgator.net

Tracklist:

Dream Evil (1987)
1-1 Night People 4:06
1-2 Dream Evil 4:25
1-3 Sunset Superman 5:46
1-4 All The Fools Sailed Away 7:11
1-5 Naked In The Rain 5:09
1-6 Overlove 3:45
1-7 I Could Have Been A Dreamer 4:43
1-8 Faces In The Window 3:50
1-9 When A Woman Cries 4:44

Bonus Tracks
2-1 Hide In The Rainbow (Dio Ep) 3:57
2-2 I Could Have Been A Dreamer (Single Edit) 3:41
Monsters Of Rock Festival, Castle Donington 22nd 
August 1987
2-3 Dream Evil 4:58
2-4 Neon Knights 4:47
2-5 Naked In The Rain 7:26
2-6 Rock 'N' Roll Children 2:44
2-7 Long Live Rock 'N' Roll 4:40
2-8 The Last In Line 4:18
2-9 Children Of The Sea 1:15
2-10 Holy Diver 1:24
2-11 Heaven And Hell 3:20
2-12 Man On The Silver Mountain 4:28
2-13 All The Fools Sailed Away 4:23
2-14 The Last In Line (Reprise) 1:19
2-15 Rainbow In The Dark 5:06

EAC-Log, CUE-Sheed & NFO:

Click to open spoiler
Exact Audio Copy V1.0 beta 3 from 29. August 2011

EAC extraction logfile from 15. March 2013, 17:48

Dio / Dream Evil (2013, Deluxe Expanded Edition, Disc 1)

Used drive : TEAC DV-W28EA Adapter: 0 ID: 1

Read mode : Secure
Utilize accurate stream : Yes
Defeat audio cache : Yes
Make use of C2 pointers : No

Read offset correction : 102
Overread into Lead-In and Lead-Out : No
Fill up missing offset samples with silence : Yes
Delete leading and trailing silent blocks : No
Null samples used in CRC calculations : Yes
Used interface : Native Win32 interface for Win NT & 2000

Used output format : Internal WAV Routines
Sample format : 44.100 Hz; 16 Bit; Stereo

TOC of the extracted CD

Track | Start | Length | Start sector | End sector
———————————————————
1 | 0:00.00 | 4:06.66 | 0 | 18515
2 | 4:06.66 | 4:25.25 | 18516 | 38415
3 | 8:32.16 | 5:46.50 | 38416 | 64415
4 | 14:18.66 | 7:11.44 | 64416 | 96784
5 | 21:30.35 | 5:09.66 | 96785 | 120025
6 | 26:40.26 | 3:45.19 | 120026 | 136919
7 | 30:25.45 | 4:43.04 | 136920 | 158148
8 | 35:08.49 | 3:50.64 | 158149 | 175462
9 | 38:59.38 | 4:44.51 | 175463 | 196813

Range status and errors

Selected range

Filename H:\bigggwest\Dio – Dream Evil (2013, Deluxe Expanded Edition, Disc 1).wav

Peak level 97.0 %
Extraction speed 3.8 X
Range quality 100.0 %
Test CRC 697A3BF3
Copy CRC 697A3BF3
Copy OK

No errors occurred

AccurateRip summary

Track 1 not present in database
Track 2 not present in database
Track 3 not present in database
Track 4 not present in database
Track 5 not present in database
Track 6 not present in database
Track 7 not present in database
Track 8 not present in database
Track 9 not present in database

None of the tracks are present in the AccurateRip database

End of status report

==== Log checksum 76301BC354317EF08851B4E76F9EB9F6FC2FC2013C213C0D827438D54053EAD5 ====

Exact Audio Copy V1.0 beta 3 from 29. August 2011

EAC extraction logfile from 16. March 2013, 7:47

Dio / Dream Evil (2013, Deluxe Expanded Edition, Disc 2)

Used drive : TEAC DV-W28EA Adapter: 0 ID: 1

Read mode : Secure
Utilize accurate stream : Yes
Defeat audio cache : Yes
Make use of C2 pointers : No

Read offset correction : 102
Overread into Lead-In and Lead-Out : No
Fill up missing offset samples with silence : Yes
Delete leading and trailing silent blocks : No
Null samples used in CRC calculations : Yes
Used interface : Native Win32 interface for Win NT & 2000

Used output format : Internal WAV Routines
Sample format : 44.100 Hz; 16 Bit; Stereo

TOC of the extracted CD

Track | Start | Length | Start sector | End sector
———————————————————
1 | 0:00.00 | 3:57.19 | 0 | 17793
2 | 3:57.19 | 3:41.13 | 17794 | 34381
3 | 7:38.32 | 4:58.26 | 34382 | 56757
4 | 12:36.58 | 4:47.10 | 56758 | 78292
5 | 17:23.68 | 7:26.34 | 78293 | 111776
6 | 24:50.27 | 2:44.23 | 111777 | 124099
7 | 27:34.50 | 4:40.51 | 124100 | 145150
8 | 32:15.26 | 4:18.48 | 145151 | 164548
9 | 36:33.74 | 1:15.12 | 164549 | 170185
10 | 37:49.11 | 1:24.25 | 170186 | 176510
11 | 39:13.36 | 3:20.62 | 176511 | 191572
12 | 42:34.23 | 4:28.16 | 191573 | 211688
13 | 47:02.39 | 4:23.21 | 211689 | 231434
14 | 51:25.60 | 1:19.09 | 231435 | 237368
15 | 52:44.69 | 5:06.49 | 237369 | 260367

Range status and errors

Selected range

Filename H:\bigggwest\Dio – Dream Evil (2013, Deluxe Expanded Edition, Disc 2).wav

Peak level 97.0 %
Extraction speed 4.0 X
Range quality 100.0 %
Test CRC 4845147E
Copy CRC 4845147E
Copy OK

No errors occurred

AccurateRip summary

Track 1 not present in database
Track 2 not present in database
Track 3 not present in database
Track 4 not present in database
Track 5 not present in database
Track 6 not present in database
Track 7 not present in database
Track 8 not present in database
Track 9 not present in database
Track 10 not present in database
Track 11 not present in database
Track 12 not present in database
Track 13 not present in database
Track 14 not present in database
Track 15 not present in database

None of the tracks are present in the AccurateRip database

End of status report

==== Log checksum 3F0278EE92452B90571DA6C71ADEA2103C671CB0C1C6C0F6290A6B61AB33B87B ====

REM GENRE “Heavy Metal”
REM DATE 1987
REM DISCID 5F0A4009
REM COMMENT “ExactAudioCopy v1.0b3”
CATALOG 0602537277896
PERFORMER “Dio”
TITLE “Dream Evil (2013, Deluxe Expanded Edition, Disc 1)”
FILE “Dio – Dream Evil (2013, Deluxe Expanded Edition, Disc 1).flac” WAVE
TRACK 01 AUDIO
TITLE “Night People”
PERFORMER “Dio”
ISRC GE9088790132
INDEX 01 00:00:00
TRACK 02 AUDIO
TITLE “Dream Evil”
PERFORMER “Dio”
ISRC GE9080201369
INDEX 01 04:06:66
TRACK 03 AUDIO
TITLE “Sunset Superman”
PERFORMER “Dio”
ISRC GE9080300561
INDEX 01 08:32:16
TRACK 04 AUDIO
TITLE “All The Fools Sailed Away”
PERFORMER “Dio”
ISRC NGa050590038
INDEX 01 14:18:66
TRACK 05 AUDIO
TITLE “Naked In The Rain”
PERFORMER “Dio”
ISRC NGa050590039
INDEX 01 21:30:35
TRACK 06 AUDIO
TITLE “Overlove”
PERFORMER “Dio”
ISRC GE9088790134
INDEX 01 26:40:26
TRACK 07 AUDIO
TITLE “I Could Have Been A Dreamer”
PERFORMER “Dio”
ISRC GE9080400097
INDEX 01 30:25:45
TRACK 08 AUDIO
TITLE “Faces In The Window”
PERFORMER “Dio”
ISRC NGa050590041
INDEX 01 35:08:49
TRACK 09 AUDIO
TITLE “When A Woman Cries”
PERFORMER “Dio”
ISRC NGa050590042
INDEX 01 38:59:38

REM GENRE “Heavy Metal”
REM DATE 2013
REM DISCID DE0D8F0F
REM COMMENT “ExactAudioCopy v1.0b3”
CATALOG 0602537277902
PERFORMER “Dio”
TITLE “Dream Evil (2013, Deluxe Expanded Edition, Disc 2)”
FILE “Dio – Dream Evil (2013, Deluxe Expanded Edition, Disc 2).flac” WAVE
TRACK 01 AUDIO
TITLE “Hide In The Rainbow (Dio Ep)”
PERFORMER “Dio”
ISRC GE:M70804082
INDEX 01 00:00:00
TRACK 02 AUDIO
TITLE “I Could Have Been A Dreamer (Single Edit)”
PERFORMER “Dio”
ISRC GE9088790130
INDEX 01 03:57:19
TRACK 03 AUDIO
TITLE “Dream Evil (Live)”
PERFORMER “Dio”
ISRC UY=EG1010024
INDEX 01 07:38:32
TRACK 04 AUDIO
TITLE “Neon Knights (Live)”
PERFORMER “Dio”
ISRC UY=EG1010025
INDEX 01 12:36:58
TRACK 05 AUDIO
TITLE “Naked In The Rain (Live)”
PERFORMER “Dio”
ISRC UY=EG1010026
INDEX 01 17:23:68
TRACK 06 AUDIO
TITLE “Rock ‘N’ Roll Children (Live)”
PERFORMER “Dio”
ISRC UY=EG1010027
INDEX 01 24:50:27
TRACK 07 AUDIO
TITLE “Long Live Rock ‘N’ Roll (Live)”
PERFORMER “Dio”
ISRC UY=EG1010028
INDEX 01 27:34:50
TRACK 08 AUDIO
TITLE “The Last In Line (Live)”
PERFORMER “Dio”
ISRC UY=EG1010029
INDEX 01 32:15:26
TRACK 09 AUDIO
TITLE “Children Of The Sea (Live)”
PERFORMER “Dio”
ISRC UY=EG1010030
INDEX 01 36:33:74
TRACK 10 AUDIO
TITLE “Holy Diver (Live)”
PERFORMER “Dio”
ISRC UY=EG1010031
INDEX 01 37:49:11
TRACK 11 AUDIO
TITLE “Heaven And Hell (Live)”
PERFORMER “Dio”
ISRC UY=EG1010032
INDEX 01 39:13:36
TRACK 12 AUDIO
TITLE “Man On The Silver Mountain (Live)”
PERFORMER “Dio”
ISRC UY=EG1010033
INDEX 01 42:34:23
TRACK 13 AUDIO
TITLE “All The Fools Sailed Away (Live)”
PERFORMER “Dio”
ISRC UY=EG1010034
INDEX 01 47:02:39
TRACK 14 AUDIO
TITLE “The Last In Line (Reprise) (Live)”
PERFORMER “Dio”
ISRC UY=EG1010035
INDEX 01 51:25:60
TRACK 15 AUDIO
TITLE “Rainbow In The Dark (Live)”
PERFORMER “Dio”
ISRC UY=EG1010036
INDEX 01 52:44:69


Spread the Download

Leave a Reply

Your email address will not be published. Required fields are marked *

Enter the text from the image below
 

This site uses Akismet to reduce spam. Learn how your comment data is processed.