Dio – Dream Evil (Japanese Edition)




Artist: Dio
Year: 1987
Genre: Metal
Notes: Discogs
Add. Notes: Japanese Edition
Cover incl.: Yes
Encoder: FLAC
Bitrate: ~800 kBit/s (44.1 kHz/16 Bit/s)
Log & Cue incl.: Yes
Size: 283,02 MB
Password: “slam” (without ” “)


All Downloads/Hosters are compatible

Download 1
Turbobit.net
Rapidgator.net
KatFile.com
UploadRar.com
UploadRive.com
Download 2
Turbobit.net
Rapidgator.net
KatFile.com
UploadRar.com
UploadRive.com

Tracklist:

1 - Night People - 4:09
2 - Dream Evil - 4:25
3 - Sunset Superman - 5:49
4 - All The Fools Sailed Away - 7:15
5 - Naked In The Rain - 5:14
6 - Overlove - 3:47
7 - I Could Have Been A Dreamer - 4:48
8 - Faces In The Window - 3:52
9 - When A Woman Cries - 4:42

EAC-Log, CUE-Sheed & NFO:

Click to open spoiler
Exact Audio Copy V0.99 prebeta 4 from 23. January 2008

EAC extraction logfile from 11. February 2011, 17:04

Dio / Dream Evil (32PD-320)

Used drive : PLEXTOR DVDR PX-760A Adapter: 0 ID: 0

Read mode : Secure
Utilize accurate stream : Yes
Defeat audio cache : Yes
Make use of C2 pointers : No

Read offset correction : 30
Overread into Lead-In and Lead-Out : No
Fill up missing offset samples with silence : Yes
Delete leading and trailing silent blocks : No
Null samples used in CRC calculations : Yes
Used interface : Installed external ASPI interface

Used output format : Internal WAV Routines
Sample format : 44.100 Hz; 16 Bit; Stereo

TOC of the extracted CD

Track | Start | Length | Start sector | End sector
———————————————————
1 | 0:00.00 | 4:09.27 | 0 | 18701
2 | 4:09.27 | 4:29.15 | 18702 | 38891
3 | 8:38.42 | 5:46.53 | 38892 | 64894
4 | 14:25.20 | 7:14.10 | 64895 | 97454
5 | 21:39.30 | 5:11.70 | 97455 | 120849
6 | 26:51.25 | 3:49.35 | 120850 | 138059
7 | 30:40.60 | 4:45.32 | 138060 | 159466
8 | 35:26.17 | 3:53.20 | 159467 | 176961
9 | 39:19.37 | 4:43.05 | 176962 | 198191

Range status and errors

Selected range

Filename D:\bki71\Dio – Dream Evil (32PD-320).wav

Peak level 100.0 %
Range quality 99.9 %
Test CRC 1132C1F0
Copy CRC 1132C1F0
Copy OK

No errors occurred

AccurateRip summary

Track 1 cannot be verified as accurate (confidence 1) [2C110C8C], AccurateRip returned [57B83330]
Track 2 cannot be verified as accurate (confidence 1) [F1B26732], AccurateRip returned [F4344F5A]
Track 3 cannot be verified as accurate (confidence 1) [87724A0A], AccurateRip returned [DB2AF0E7]
Track 4 cannot be verified as accurate (confidence 1) [C7C02BE0], AccurateRip returned [08A71663]
Track 5 cannot be verified as accurate (confidence 1) [8907ECA4], AccurateRip returned [DF522F16]
Track 6 cannot be verified as accurate (confidence 1) [A062796E], AccurateRip returned [287B4F56]
Track 7 cannot be verified as accurate (confidence 1) [948D7346], AccurateRip returned [10E31768]
Track 8 not present in database
Track 9 cannot be verified as accurate (confidence 1) [84A99D98], AccurateRip returned [E0C8478E]

8 track(s) could not be verified as accurate
1 track(s) not present in the AccurateRip database

No tracks could be verified as accurate
You may have a different pressing from the one(s) in the database

End of status report

REM GENRE “Heavy Metal”
REM DATE 1987
REM DISCID 5E0A5209
REM COMMENT “ExactAudioCopy v0.99pb4”
PERFORMER “Dio”
TITLE “Dream Evil (32PD-320)”
FILE “Dio – Dream Evil (32PD-320).flac” WAVE
TRACK 01 AUDIO
TITLE “Night People”
PERFORMER “Dio”
INDEX 01 00:00:00
TRACK 02 AUDIO
TITLE “Dream Evil”
PERFORMER “Dio”
INDEX 00 04:06:72
INDEX 01 04:09:27
TRACK 03 AUDIO
TITLE “Sunset Superman”
PERFORMER “Dio”
INDEX 00 08:35:07
INDEX 01 08:38:42
TRACK 04 AUDIO
TITLE “All The Fools Sailed Away”
PERFORMER “Dio”
INDEX 01 14:25:20
TRACK 05 AUDIO
TITLE “Naked In The Rain”
PERFORMER “Dio”
INDEX 01 21:39:30
TRACK 06 AUDIO
TITLE “Overlove”
PERFORMER “Dio”
INDEX 00 26:49:25
INDEX 01 26:51:25
TRACK 07 AUDIO
TITLE “I Could Have Been A Dreamer”
PERFORMER “Dio”
INDEX 00 30:36:60
INDEX 01 30:40:60
TRACK 08 AUDIO
TITLE “Faces In The Window”
PERFORMER “Dio”
INDEX 00 35:24:07
INDEX 01 35:26:17
TRACK 09 AUDIO
TITLE “When A Woman Cries”
PERFORMER “Dio”
INDEX 00 39:16:27
INDEX 01 39:19:37
m


Leave a Reply

Your email address will not be published. Required fields are marked *

This site uses Akismet to reduce spam. Learn how your comment data is processed.